2013Zone For Latest Downloads

 
     
 
Legal Downloads » Torrents » MadagascaR 3: Europe's Most Wanted (2012) DVDScR XviD.AC3 - AZHX
Menu
Home Applications
Games Movies
Music TV Shows
Torrents Graphics

Sitemap

RSS
 
Advanced Search
Last News
Site Info
Top Contributors:
  1    supper88 32766
  2    admin 32723
  3    Whisky 10080
  4    Shark_ 8911
  5    creativelivenew 8706
  6    whathesupa 2799
  7    candymypost 840
  8    hvnteam 629
  9    vuong87 3


Articles:
  This Hour: 0
  Today: 0
  This Month: 31
  All Time: 515496


Torrents:
  Today: 0
  Yesterday: 0
  All Time: 156680


Membership:
  Registered Today :0
  This Hour:0
  This Month:0
  Total:14
  Banned:1

{online}
{inform_torrent}
Friend:
Full Download Scripts
Torrent Download
Trend
Trend

Search In Site

Torrents : MadagascaR 3: Europe's Most Wanted (2012) DVDScR XviD.AC3 - AZHX
 

Torrent name:MadagascaR 3: Europe's Most Wanted (2012) DVDScR XviD.AC3 - AZHX

Seeds:0

Leechers:0

Health: 

Total size:446.86 MB

Torrent added:2012-06-09 02:11:31

Info hash:CE93701591AB78889FBC081152ABD989B21407A7


Description:
 

IMDb:  http://www.imdb.com/title/tt1735898/
-------------------------------------------

MadagascaR 3: Europe's Most Wanted (2012) DVDScR_XviD.AC3 - AZHX
----------------------------------------------------------------

Sample..........................: Yes

Sample Size.....................: 25.7 MiB
------------------------------------------

Details:
-------

Video
ID                               : 0
Format                           : MPEG-4 Visual
Format profile                   : [email protected]
Format settings, BVOP            : Yes
Format settings, QPel            : No
Format settings, GMC             : No warppoints
Format settings, Matrix          : Custom
Codec ID                         : XVID
Codec ID/Hint                    : XviD
Duration                         : 1h 35mn
Bit rate                         : 1 625 Kbps
Width                            : 720 pixels
Height                           : 304 pixels
Display aspect ratio             : 2.35:1
Frame rate                       : 23.976 fps
Resolution                       : 24 bits
Colorimetry                      : 4:2:0
Scan type                        : Progressive
Bits/(Pixel*Frame)               : 0.310
Stream size                      : 420 MiB (99%)
Writing library                  : XviD 58

Audio
ID                               : 1
Format                           : AC-3
Format/Info                      : Audio Coding 3
Codec ID                         : 2000
Duration                         : 1h 35mn
Bit rate mode                    : Constant
Bit rate                         : 192 Kbps
Channel(s)                       : 2 channels
Channel positions                : L R
Sampling rate                    : 48.0 KHz
Stream size                      : 147 MiB (11%)
Alignment                        : Aligned on interleaves
Interleave, duration             : 64 ms (1.53 video frames)
Interleave, preload duration     : 192 ms
-----------------------------------------

Plot:
----

Alex, Marty, Gloria and Melman are still fighting to get home 
to their beloved Big Apple. Their journey takes them through 
Europe where they find the perfect cover: a traveling circus, 
which they reinvent - Madagascar style. 
--------------------------------------

Screenshots:
-----------
 
http://imageshack.us/photo/my-images/585/63652155.jpg/ 
http://imageshack.us/photo/my-images/220/21485763.jpg/ 
http://imageshack.us/photo/my-images/267/89899708.jpg/ 
http://imageshack.us/photo/my-images/560/59799471.jpg/ 
http://imageshack.us/photo/my-images/155/96045700.jpg/ 
http://imageshack.us/photo/my-images/16/21489513.jpg/ 
http://imageshack.us/photo/my-images/580/19731807.jpg/ 
http://imageshack.us/photo/my-images/694/75495725.jpg/ 
http://imageshack.us/photo/my-images/339/84647211.jpg/ 
http://imageshack.us/photo/my-images/10/91771016.jpg/
----------------------------------------------------

Download utorrent client from http://www.utorrent.com/ before downloading from below magnet link

magnet:?xt=urn:btih:CE93701591AB78889FBC081152ABD989B21407A7


MadagascaR 3: Europe's Most Wanted (2012) DVDScR XviD.AC3 - AZHX Fast Download



 
 
 
Dear visitor, you went to the site as an unregistered user. We encourage you to register or enter the site under your name.
 
   
 
 (Votes #: 0)