2013Zone For Latest Downloads

 
     
 
Legal Downloads » Torrents » Jeff.Who.Lives.At.Home.2011.LiMiTED.BRRip.XviD.AC3-ADTRG
Menu
Home Applications
Games Movies
Music TV Shows
Torrents Graphics

Sitemap

RSS
 
Advanced Search
Last News
Site Info
Top Contributors:
  1    supper88 32766
  2    admin 32723
  3    Whisky 10080
  4    Shark_ 8911
  5    creativelivenew 8706
  6    whathesupa 2799
  7    candymypost 840
  8    hvnteam 629
  9    vuong87 3


Articles:
  This Hour: 0
  Today: 0
  This Month: 31
  All Time: 515496


Torrents:
  Today: 0
  Yesterday: 0
  All Time: 156680


Membership:
  Registered Today :0
  This Hour:0
  This Month:0
  Total:14
  Banned:1

{online}
{inform_torrent}
Friend:
Full Download Scripts
Torrent Download
Trend
Trend

Search In Site

Torrents : Jeff.Who.Lives.At.Home.2011.LiMiTED.BRRip.XviD.AC3-ADTRG
 

Torrent name:Jeff.Who.Lives.At.Home.2011.LiMiTED.BRRip.XviD.AC3-ADTRG

Seeds:33

Leechers:133

Health: 

Total size:1.28 GB

Torrent added:2012-06-08 19:53:33

Info hash:20FAC8C0762C6A6F546488376B3C1ED4F67F620F


Description:
 

Jeff.Who.Lives.At.Home.2011.LiMiTED.BRRip.XviD.AC3-ADTRG




Dispatched from his basement room on an errand for his mother, slacker Jeff might discover his destiny (finally) when he spends the day with his brother as he tracks his possibly adulterous wife. 

Source - Jeff.Who.Lives.At.Home.2011.LiMiTED.720p.BluRay.x264-SPARKS Thanks

Complete name : Jeff.Who.Lives.At.Home.2011.LiMiTED.BRRip.XViD.AC3-ADTRG.avi
Format : AVI
Format/Info : Audio Video Interleave
File size : 1.27 GiB
Duration : 1h 23mn
Overall bit rate : 2 189 Kbps
Writing library : VirtualDub build 34703/release

Video
ID : 0
Format : MPEG-4 Visual
Codec ID : XVID
Bit rate : 1 795 Kbps
Width : 720 pixels
Height : 400 pixels
Display aspect ratio : 16:9
Frame rate : 23.976 fps
Stream size : 1.04 GiB (82%)

Audio
ID : 1
Format : AC-3
Bit rate : 384 Kbps
Channel(s) : 6 channels
Channel positions : Front: L C R, Side: L R, LFE
Sampling rate : 48.0 KHz
Stream size : 228 MiB (18%)

Download utorrent client from http://www.utorrent.com/ before downloading from below magnet link

magnet:?xt=urn:btih:20FAC8C0762C6A6F546488376B3C1ED4F67F620F


Jeff.Who.Lives.At.Home.2011.LiMiTED.BRRip.XviD.AC3-ADTRG Fast Download



 
 
 
Dear visitor, you went to the site as an unregistered user. We encourage you to register or enter the site under your name.
 
   
 
 (Votes #: 0)