2013Zone For Latest Downloads

 
     
 
Legal Downloads » Torrents » The_Avengers_[2012]_DVDRIP_AC3_XViD_SUPER
Menu
Home Applications
Games Movies
Music TV Shows
Torrents Graphics

Sitemap

RSS
 
Advanced Search
Last News
Site Info
Top Contributors:
  1    supper88 32766
  2    admin 32723
  3    Whisky 10080
  4    Shark_ 8911
  5    creativelivenew 8706
  6    whathesupa 2799
  7    candymypost 840
  8    hvnteam 629
  9    vuong87 3


Articles:
  This Hour: 0
  Today: 0
  This Month: 31
  All Time: 515496


Torrents:
  Today: 0
  Yesterday: 0
  All Time: 156680


Membership:
  Registered Today :0
  This Hour:0
  This Month:0
  Total:14
  Banned:1

{online}
{inform_torrent}
Friend:
Full Download Scripts
Torrent Download
Trend
Trend

Search In Site

Torrents : The_Avengers_[2012]_DVDRIP_AC3_XViD_SUPER
 

Torrent name:The_Avengers_[2012]_DVDRIP_AC3_XViD_SUPER

Seeds:15

Leechers:40

Health: 

Total size:800.24 MB

Torrent added:2012-06-09 03:59:00

Info hash:1361AF02BB7687F47D0F5DF87A159A22C89D136F


Description:
 

http://imageshack.us/photo/my-images/846/30686142.jpg/ 
http://imageshack.us/photo/my-images/233/72814341.jpg/ 
http://imageshack.us/photo/my-images/51/53836112.jpg/ 
http://imageshack.us/photo/my-images/856/83508727.jpg/ 
http://imageshack.us/photo/my-images/823/85378126.jpg/ 
http://imageshack.us/photo/my-images/834/79877088.jpg/ 
http://imageshack.us/photo/my-images/854/87861930.jpg/ 
http://imageshack.us/photo/my-images/404/14635766.jpg/ 
http://imageshack.us/photo/my-images/10/25099876.jpg/ 
http://imageshack.us/photo/my-images/4/65622994.jpg/



Details:
-------

Video
ID                               : 0
Format                           : MPEG-4 Visual
Format profile                   : [email protected]
Format settings, BVOP            : Yes
Format settings, QPel            : No
Format settings, GMC             : No warppoints
Format settings, Matrix          : Custom
Codec ID                         : XVID
Codec ID/Hint                    : XviD
Duration                         : 1h 41mn
Bit rate                         : 1 625 Kbps
Width                            : 720 pixels
Height                           : 304 pixels
Display aspect ratio             : 2.35:1
Frame rate                       : 23.976 fps
Resolution                       : 24 bits
Colorimetry                      : 4:2:0
Scan type                        : Progressive
Bits/(Pixel*Frame)               : 0.310
Stream size                      : 691 MiB (99%)
Writing library                  : XviD 58

Audio
ID                               : 1
Format                           : AC-3
Format/Info                      : Audio Coding 3
Codec ID                         : 2000
Duration                         : 1h 41mn
Bit rate mode                    : Constant
Bit rate                         : 192 Kbps
Channel(s)                       : 2 channels
Channel positions                : L R
Sampling rate                    : 48.0 KHz
Stream size                      : 147 MiB (11%)
Alignment                        : Aligned on interleaves
Interleave, duration             : 64 ms (1.53 video frames)
Interleave, preload duration     : 192 ms
-----------------------------------------

Download utorrent client from http://www.utorrent.com/ before downloading from below magnet link

magnet:?xt=urn:btih:1361AF02BB7687F47D0F5DF87A159A22C89D136F


The_Avengers_[2012]_DVDRIP_AC3_XViD_SUPER Fast Download



 
 
 
Dear visitor, you went to the site as an unregistered user. We encourage you to register or enter the site under your name.
 
   
 
 (Votes #: 0)