2013Zone For Latest Downloads

 
     
 
Legal Downloads » Torrents » Madagascar 3 Europe's most wanted (2012) CAM READNFO XViD INSPiR
Menu
Home Applications
Games Movies
Music TV Shows
Torrents Graphics

Sitemap

RSS
 
Advanced Search
Last News
Site Info
Top Contributors:
  1    supper88 32766
  2    admin 32723
  3    Whisky 10080
  4    Shark_ 8911
  5    creativelivenew 8706
  6    whathesupa 2799
  7    candymypost 840
  8    hvnteam 629
  9    vuong87 3


Articles:
  This Hour: 0
  Today: 0
  This Month: 31
  All Time: 515496


Torrents:
  Today: 0
  Yesterday: 0
  All Time: 156680


Membership:
  Registered Today :0
  This Hour:0
  This Month:0
  Total:14
  Banned:1

{online}
{inform_torrent}
Friend:
Full Download Scripts
Torrent Download
Trend
Trend

Search In Site

Torrents : Madagascar 3 Europe's most wanted (2012) CAM READNFO XViD INSPiR
 

Torrent name:Madagascar 3 Europe's most wanted (2012) CAM READNFO XViD INSPiR

Seeds:1

Leechers:1

Health: 

Total size:1.35 GB

Torrent added:2012-06-07 10:47:02

Info hash:1C8460DA7D58C1FA6E4F9AC294B03A34C82BFC29


Description:
 

Madagascar 3 Europe's most wanted (2012) CAM READNFO XViD INSPiRAL




Alex, Marty, Gloria and Melman are still fighting to get home to 

their beloved Big Apple. Their journey takes them through Europe 

where they find the perfect cover: a traveling circus, which they 

reinvent - Madagascar style.


Complete name : Madagascar 3 Europe's most wanted (2012) CAM READNFO XViD INSPiRAL
 
Format : wmv
Format/Info : Audio Video Interleave
File size : 1.34 GB
Duration : 1h 25mn
Overall bit rate : 1 693 Kbps
Writing application : Nandub v1.0rc2
Writing library : VirtualDub build 34703/release

Video
ID : 0
Format : MPEG-4 Visual
Codec ID : XVID
Bit rate : 1 489 Kbps
Width : 720 pixels
Height : 320 pixels
Display aspect ratio : 2.25:1
Frame rate : 29.970 fps
Stream size : 1.22 GiB (88%)

Audio
ID : 1
Format : AC-3
Bit rate : 192 Kbps
Channel(s) : 2 channels
Channel positions : Front: L R
Sampling rate : 48.0 KHz
Stream size : 161 MiB (11%)


Source - Cam German Thanks
Source - LiNe - Dragon Exclusive Thanks, Awesome work bro

Notes.
Very nice Cam, Even better LiNe (Cheers Bro) slight flicker every now 

and then, luckily not to often or to bad. Who reads NFO's anyway, so 

im of to bed, get some BooM Boom and Eat. Enjoy
Remember, if you love it and you want it, Sync some LiNe with it. lol

Download utorrent client from http://www.utorrent.com/ before downloading from below magnet link

magnet:?xt=urn:btih:1C8460DA7D58C1FA6E4F9AC294B03A34C82BFC29


Madagascar 3 Europe's most wanted (2012) CAM READNFO XViD INSPiR Fast Download



 
 
 
Dear visitor, you went to the site as an unregistered user. We encourage you to register or enter the site under your name.
 
   
 
 (Votes #: 0)