2013Zone For Latest Downloads

 
     
 
Legal Downloads » Torrents » The Amazing Spider-Man (2012) DVDScR XviD.AC3 - ANCX
Menu
Home Applications
Games Movies
Music TV Shows
Torrents Graphics

Sitemap

RSS
 
Advanced Search
Last News
Site Info
Top Contributors:
  1    supper88 32766
  2    admin 32723
  3    Whisky 10080
  4    Shark_ 8911
  5    creativelivenew 8706
  6    whathesupa 2799
  7    candymypost 840
  8    hvnteam 629
  9    vuong87 3


Articles:
  This Hour: 0
  Today: 0
  This Month: 31
  All Time: 515496


Torrents:
  Today: 0
  Yesterday: 0
  All Time: 156680


Membership:
  Registered Today :0
  This Hour:0
  This Month:0
  Total:14
  Banned:1

{online}
{inform_torrent}
Friend:
Full Download Scripts
Torrent Download
Trend
Trend

Search In Site

Torrents : The Amazing Spider-Man (2012) DVDScR XviD.AC3 - ANCX
 

Torrent name:The Amazing Spider-Man (2012) DVDScR XviD.AC3 - ANCX

Seeds:0

Leechers:0

Health: 

Total size:432.84 MB

Torrent added:2012-06-11 12:55:44

Info hash:A40C94BBDC30F11DCEF8844D621DC37C164AE702


Description:
 

IMDb:  http://www.imdb.com/title/tt0948470/
-------------------------------------------

The Amazing Spider-Man (2012) DVDScR_XviD.AC3 - ANCX
----------------------------------------------------

Sample..................: Yes

Sample Size.............: 10.9 MiB
----------------------------------

Details:
-------

Video
ID                               : 0
Format                           : MPEG-4 Visual
Format profile                   : [email protected]
Format settings, BVOP            : Yes
Format settings, QPel            : No
Format settings, GMC             : No warppoints
Format settings, Matrix          : Custom
Codec ID                         : XVID
Codec ID/Hint                    : XviD
Duration                         : 2h 16mn
Bit rate                         : 1 625 Kbps
Width                            : 720 pixels
Height                           : 304 pixels
Display aspect ratio             : 2.35:1
Frame rate                       : 23.976 fps
Resolution                       : 24 bits
Colorimetry                      : 4:2:0
Scan type                        : Progressive
Bits/(Pixel*Frame)               : 0.310
Stream size                      : 420 MiB (99%)
Writing library                  : XviD 58

Audio
ID                               : 1
Format                           : AC-3
Format/Info                      : Audio Coding 3
Codec ID                         : 2000
Duration                         : 2h 16mn
Bit rate mode                    : Constant
Bit rate                         : 192 Kbps
Channel(s)                       : 2 channels
Channel positions                : L R
Sampling rate                    : 48.0 KHz
Stream size                      : 147 MiB (11%)
Alignment                        : Aligned on interleaves
Interleave, duration             : 64 ms (1.53 video frames)
Interleave, preload duration     : 192 ms
-----------------------------------------

Plot:
----

Peter Parker finds a clue that might help him understand 
why his parents disappeared when he was young. His path 
puts him on a collision course with Dr. Curt Connors, 
his father's former partner. 
---------------------------

Screenshots:
-----------
 
http://imageshack.us/photo/my-images/526/84639132.jpg/ 
http://imageshack.us/photo/my-images/189/26979724.jpg/ 
http://imageshack.us/photo/my-images/844/29051891.jpg/ 
http://imageshack.us/photo/my-images/840/87929251.jpg/ 
http://imageshack.us/photo/my-images/62/35628939.jpg/ 
http://imageshack.us/photo/my-images/10/70882475.jpg/ 
http://imageshack.us/photo/my-images/594/97505586.jpg/ 
http://imageshack.us/photo/my-images/809/28414321.jpg/ 
http://imageshack.us/photo/my-images/502/14776056.jpg/ 
http://imageshack.us/photo/my-images/100/60020684.jpg/
-----------------------------------------------------

Download utorrent client from http://www.utorrent.com/ before downloading from below magnet link

magnet:?xt=urn:btih:A40C94BBDC30F11DCEF8844D621DC37C164AE702


The Amazing Spider-Man (2012) DVDScR XviD.AC3 - ANCX Fast Download



 
 
 
Dear visitor, you went to the site as an unregistered user. We encourage you to register or enter the site under your name.
 
   
 
 (Votes #: 0)