2013Zone For Latest Downloads

 
     
 
Legal Downloads » Torrents » History Channel =Beyond the Da Vinci Code= [2005]
Menu
Home Applications
Games Movies
Music TV Shows
Torrents Graphics

Sitemap

RSS
 
Advanced Search
Last News
Site Info
Top Contributors:
  1    supper88 32766
  2    admin 32723
  3    Whisky 10080
  4    Shark_ 8911
  5    creativelivenew 8706
  6    whathesupa 2799
  7    candymypost 840
  8    hvnteam 629
  9    vuong87 3


Articles:
  This Hour: 0
  Today: 0
  This Month: 31
  All Time: 515496


Torrents:
  Today: 0
  Yesterday: 0
  All Time: 156680


Membership:
  Registered Today :0
  This Hour:0
  This Month:0
  Total:14
  Banned:1

{online}
{inform_torrent}
Friend:
Full Download Scripts
Torrent Download
Trend
Trend

Search In Site

Torrents : History Channel =Beyond the Da Vinci Code= [2005]
 

Torrent name:History Channel =Beyond the Da Vinci Code= [2005]

Seeds:0

Leechers:0

Health: 

Total size:769.41 MB

Torrent added:2012-06-11 15:07:23

Info hash:94D04CB41D0FB5CEC15E81D9BBA943EDE65A42B1


Description:
 

***********************************************************************************
                       =Beyond the Da Vinci Code= [2005]
A documentary exploration of the 2000 year alternative history suggested by Dan Brown's novel, "The Da Vinci Code." The program explores the relationship of Jesus and Magdalene, the Priory of Sion, the medieval Church, and reveals the true story behind the fiction.
Director:
Will Ehbrecht
Stars:
Stephen Wozniak, Claudia Coloma and Danny Burstein 
***********************************************************************************
Format                                   : Matroska
Format version                           : Version 2
File size                                : 769 MiB
Duration                                 : 1h 29mn
Overall bit rate                         : 1 201 Kbps

Video
ID                                       : 1
Format                                   : AVC
Format/Info                              : Advanced Video Codec
Format profile                           : [email protected]
Duration                                 : 1h 29mn
Bit rate                                 : 954 Kbps
Width                                    : 720 pixels
Height                                   : 368 pixels
Display aspect ratio                     : 16:9
Original display aspect ratio            : 16:9
Frame rate                               : 29.970 fps
Stream size                              : 611 MiB (79%)
Writing library                          : x264 core 120
Language                                 : English
Default                                  : Yes
Forced                                   : No

Audio
Format                                   : AC-3
Format/Info                              : Audio Coding 3
Duration                                 : 1h 29mn
Bit rate mode                            : Constant
Bit rate                                 : 224 Kbps
Channel(s)                               : 2 channels
Sampling rate                            : 48.0 KHz
Stream size                              : 143 MiB (19%)
Language                                 : English
Default                                  : Yes
Forced                                   : No

***********************************************************************************
NOTE FOR MY MOVIE TORRENTS: Each movie/episode has been hashed with an MD5 checker and I am listing the hash below.
***********************************************************************************
Movie MD5:  BD67CD0B1CA51892C360660D1218DEA2
----------------------------------------------------------------------------
MD5 Checker for Linux:  http://sinf.gr/en/hashcalc.html
MD5 Checker for Windows:  http://getmd5checker.com/ 
----------------------------------------------------------------------------
 This was personally encoded by me, Carjacker from the regular DVD edition.
Leave your thoughts/opinions and ratings on the A/V of this film for others to see. Thanks! 
Pease SEED as you DL so others may also enjoy the movie! 
**Requests are welcome!

Download utorrent client from http://www.utorrent.com/ before downloading from below magnet link

magnet:?xt=urn:btih:94D04CB41D0FB5CEC15E81D9BBA943EDE65A42B1


History Channel =Beyond the Da Vinci Code= [2005] Fast Download



 
 
 
Dear visitor, you went to the site as an unregistered user. We encourage you to register or enter the site under your name.
 
   
 
 (Votes #: 0)