2013Zone For Latest Downloads

 
     
 
Legal Downloads » Torrents » Rock of Ages (2012) DVDScR XviD.AC3 - ARCHiX
Menu
Home Applications
Games Movies
Music TV Shows
Torrents Graphics

Sitemap

RSS
 
Advanced Search
Last News
Site Info
Top Contributors:
  1    supper88 32766
  2    admin 32723
  3    Whisky 10080
  4    Shark_ 8911
  5    creativelivenew 8706
  6    whathesupa 2799
  7    candymypost 840
  8    hvnteam 629
  9    vuong87 3


Articles:
  This Hour: 0
  Today: 0
  This Month: 31
  All Time: 515496


Torrents:
  Today: 0
  Yesterday: 0
  All Time: 156680


Membership:
  Registered Today :0
  This Hour:0
  This Month:0
  Total:14
  Banned:1

{online}
{inform_torrent}
Friend:
Full Download Scripts
Torrent Download
Trend
Trend

Search In Site

Torrents : Rock of Ages (2012) DVDScR XviD.AC3 - ARCHiX
 

Torrent name:Rock of Ages (2012) DVDScR XviD.AC3 - ARCHiX

Seeds:0

Leechers:0

Health: 

Total size:741.81 MB

Torrent added:2012-06-11 19:18:40

Info hash:D13CE1481E8289DD22F005F16C372B52E7EEAA6B


Description:
 

Rock of Ages (2012) DVDScR_XviD.AC3 - ARCHiX
--------------------------------------------

Sample.......................: Yes

Sample Size..................: 49.2 MiB
---------------------------------------

Details:
-------

Video
ID                               : 0
Format                           : MPEG-4 Visual
Format profile                   : [email protected]
Format settings, BVOP            : Yes
Format settings, QPel            : No
Format settings, GMC             : No warppoints
Format settings, Matrix          : Custom
Codec ID                         : XVID
Codec ID/Hint                    : XviD
Duration                         : 2h 03mn
Bit rate                         : 1 625 Kbps
Width                            : 720 pixels
Height                           : 304 pixels
Display aspect ratio             : 2.35:1
Frame rate                       : 23.976 fps
Resolution                       : 24 bits
Colorimetry                      : 4:2:0
Scan type                        : Progressive
Bits/(Pixel*Frame)               : 0.310
Stream size                      : 691 MiB (99%)
Writing library                  : XviD 58

Audio
ID                               : 1
Format                           : AC-3
Format/Info                      : Audio Coding 3
Codec ID                         : 2000
Duration                         : 2h 03mn
Bit rate mode                    : Constant
Bit rate                         : 192 Kbps
Channel(s)                       : 2 channels
Channel positions                : L R
Sampling rate                    : 48.0 KHz
Stream size                      : 147 MiB (11%)
Alignment                        : Aligned on interleaves
Interleave, duration             : 64 ms (1.53 video frames)
Interleave, preload duration     : 192 ms
-----------------------------------------

Plot:
----
A small town girl and a city boy meet on the Sunset Strip, 
while pursuing their Hollywood dreams.
-------------------------------------

Screenshots:
----------- 
http://imageshack.us/photo/my-images/826/59047473.jpg/ 
http://imageshack.us/photo/my-images/585/16365920.jpg/ 
http://imageshack.us/photo/my-images/849/25463782.jpg/ 
http://imageshack.us/photo/my-images/59/62848264.jpg/ 
http://imageshack.us/photo/my-images/836/22990377.jpg/ 
http://imageshack.us/photo/my-images/24/82969741.jpg/ 
http://imageshack.us/photo/my-images/708/74286284.jpg/ 
http://imageshack.us/photo/my-images/687/64402620.jpg/ 
http://imageshack.us/photo/my-images/600/41374396.jpg/ 
http://imageshack.us/photo/my-images/513/57104804.jpg/
-----------------------------------------------------

Download utorrent client from http://www.utorrent.com/ before downloading from below magnet link

magnet:?xt=urn:btih:D13CE1481E8289DD22F005F16C372B52E7EEAA6B


Rock of Ages (2012) DVDScR XviD.AC3 - ARCHiX Fast Download



 
 
 
Dear visitor, you went to the site as an unregistered user. We encourage you to register or enter the site under your name.
 
   
 
 (Votes #: 0)