Advertise
onlinemovies


Madagascar.3.Europe's.Most.Wanted.2012.Cam.XviD.Feel-Free

Published On: 12-06-2012, 09:47

Torrent name:Madagascar.3.Europe's.Most.Wanted.2012.Cam.XviD.Feel-Free

Seeds:438

Leechers:529

Health: 

Total size:1.08 GB

Torrent added:2012-06-11 19:39:17

Info hash:9F918E9D009EC67A87252FCC78105CA3E1FC7F35


Description:

8888888888 888 8888888888 888 888 888 888 888 888 8888888 .d88b. .d88b. 888 8888888 888d888 .d88b. .d88b. 888 d8P Y8b d8P Y8b 888 888 888P" d8P Y8b d8P Y8b 888 88888888 88888888 888 888 888 88888888 88888888 888 Y8b. Y8b. 888 888 888 Y8b. Y8b. 888 "Y8888 "Y8888 888 888 888 "Y8888 "Y8888 Genre:Animation | Adventure | Comedy Language:English IMDb: http://www.imdb.com/title/tt1277953 Source:ELEKTRI4KA/26k Thanks! Encoder:Tony Format : AVI Format/Info : Audio Video Interleave File size : 1.08 GiB Duration : 1h 21mn Overall bit rate : 1 897 Kbps Video Format : MPEG-4 Visual Format profile : Advanced [email protected] Format settings, BVOP : 1 Format settings, QPel : No Format settings, GMC : No warppoints Format settings, Matrix : Default (H.263) Codec ID : XVID Duration : 1h 21mn Bit rate : 1 695 Kbps Width : 640 pixels Height : 352 pixels Display aspect ratio : 16:9 Frame rate : 25.000 fps Color space : YUV Chroma subsampling : 4:2:0 Bit depth : 8 bits Scan type : Progressive Compression mode : Lossy Bits/(Pixel*Frame) : 0.301 Stream size : 984 MiB (89%) Writing library : XviD 1.2.1 (UTC 2008-12-04) Audio Format : AC-3 Format/Info : Audio Coding 3 Mode extension : CM (complete main) Format settings, Endianness : Big Duration : 1h 21mn Bit rate mode : Constant Bit rate : 192 Kbps Channel(s) : 2 channels Channel positions : Front: L R Sampling rate : 48.0 KHz Bit depth : 16 bits Compression mode : Lossy Stream size : 111 MiB (10%) Alignment : Aligned on interleaves Interleave, duration : 40 ms (1.00 video frame) Interleave, preload duration : 512 ms Plot: Alex, Marty, Gloria and Melman are still fighting to get home to their beloved Big Apple. Their journey takes them through Europe where they find the perfect cover: a traveling circus, which they reinvent - Madagascar style. Screen Shots: http://img109.imageshack.us/img109/9036/vlcsnap2012061120h06m09.png http://img100.imageshack.us/img100/3619/vlcsnap2012061120h07m03.png http://img12.imageshack.us/img12/5015/vlcsnap2012061120h05m35.png http://img819.imageshack.us/img819/9692/vlcsnap2012061120h05m52.png 8888888888 888 8888888888 888 888 888 888 888 888 8888888 .d88b. .d88b. 888 8888888 888d888 .d88b. .d88b. 888 d8P Y8b d8P Y8b 888 888 888P" d8P Y8b d8P Y8b 888 88888888 88888888 888 888 888 88888888 88888888 888 Y8b. Y8b. 888 888 888 Y8b. Y8b. 888 "Y8888 "Y8888 888 888 888 "Y8888 "Y8888

Download utorrent client from http://www.utorrent.com/ before downloading from below magnet link

[related-news][/related-news]
Dear visitor, you are browsing our website as Guest.
We strongly recommend you to register and login to view hidden contents.

Comments:

Add Comments
 

This site doesn't store any files on its server. We only index and link to content provided by other sites.