2013Zone For Latest Downloads

 
     
 
Legal Downloads » Torrents » Hombres G - Que Soy Yo Para Ti (h264/mp4)
Menu
Home Applications
Games Movies
Music TV Shows
Torrents Graphics

Sitemap

RSS
 
Advanced Search
Last News
Site Info
Top Contributors:
  1    supper88 32766
  2    admin 32651
  3    Whisky 10080
  4    Shark_ 8911
  5    creativelivenew 8706
  6    whathesupa 2799
  7    candymypost 840
  8    hvnteam 629
  9    vuong87 3


Articles:
  This Hour: 0
  Today: 0
  This Month: 0
  All Time: 515681


Torrents:
  Today: 0
  Yesterday: 0
  All Time: 156685


Membership:
  Registered Today :0
  This Hour:0
  This Month:0
  Total:14
  Banned:1

{online}
{inform_torrent}
Friend:
We Recomend
Trend
Trend
onlinemovies

Search In Site

Torrents : Hombres G - Que Soy Yo Para Ti (h264/mp4)
 

Torrent name:Hombres G - Que Soy Yo Para Ti (h264/mp4)

Seeds:0

Leechers:0

Health: 

Total size:188.64 MB

Torrent added:2012-06-14 01:09:10

Info hash:BD3D1F63E9A9B7860B515BE6F355D983AB4FEB1D


Description:
 

General

Format                           : MPEG-4
Format profile                   : Base Media
Codec ID                         : isom
File size                        : 189 MiB
Duration                         : 4mn 57s
Overall bit rate                 : 5 315 Kbps
Encoded date                     : UTC 2012-06-12 16:14:09
Tagged date                      : UTC 2012-06-12 16:14:09

Video
ID                               : 1
Format                           : AVC
Format/Info                      : Advanced Video Codec
Format profile                   : [email protected]
Format settings, CABAC           : Yes
Format settings, ReFrames        : 2 frames
Codec ID                         : avc1
Codec ID/Info                    : Advanced Video Coding
Duration                         : 4mn 57s
Bit rate mode                    : Variable
Bit rate                         : 5 189 Kbps
Maximum bit rate                 : 10.4 Mbps
Width                            : 720 pixels
Height                           : 576 pixels
Display aspect ratio             : 4:3
Original display aspect ratio    : 4:3
Frame rate mode                  : Constant
Frame rate                       : 25.000 fps
Standard                         : PAL
Color space                      : YUV
Chroma subsampling               : 4:2:0
Bit depth                        : 8 bits
Scan type                        : Progressive
Bits/(Pixel*Frame)               : 0.500
Stream size                      : 186 MiB (99%)


Audio
ID                               : 2
Format                           : AAC
Format/Info                      : Advanced Audio Codec
Format profile                   : LC
Codec ID                         : 40
Duration                         : 4mn 57s
Bit rate mode                    : Variable
Bit rate                         : 70.3 Kbps
Maximum bit rate                 : 79.1 Kbps
Channel(s)                       : 2 channels
Channel positions                : Front: L R
Sampling rate                    : 48.0 KHz
Compression mode                 : Lossy
Stream size                      : 2.49 MiB (1%)

Download utorrent client from http://www.utorrent.com/ before downloading from below magnet link

magnet:?xt=urn:btih:BD3D1F63E9A9B7860B515BE6F355D983AB4FEB1D


 
 
 
Dear visitor, you went to the site as an unregistered user. We encourage you to register or enter the site under your name.
 
   
 
 (Votes #: 0)