Advertise
onlinemovies


Madagascar.3.Europe's.Most.Wanted.2012.CAM.READNFO.XviD-INSPiRAL

Published On: 13-06-2012, 23:46

Torrent name:Madagascar.3.Europe's.Most.Wanted.2012.CAM.READNFO.XviD-INSPiRAL

Seeds:0

Leechers:0

Health: 

Total size:1.37 GB

Torrent added:2012-06-12 02:07:12

Info hash:B4A449DC14053C3C06ED158800C4B91296410B33


Description:

Alex, Marty, Gloria and Melman are still fighting to get home to their beloved Big Apple. Their journey takes them through Europe where they find the perfect cover: a traveling circus, which they reinvent - Madagascar style. Genre:Animation | Adventure | Comedy Language:English IMDb:http://www.imdb.com/title/tt1277953/ Source:Spanish/26k Thanks! Encoder:Tony Format : AVI Format/Info : Audio Video Interleave File size : 853 MiB Duration : 1h 23mn Overall bit rate mode : Variable Overall bit rate : 1 435 Kbps Writing application : Lavf52.61.0 Video ID : 0 Format : MPEG-4 Visual Format profile : Advanced [email protected] Format settings, BVOP : 2 Format settings, QPel : No Format settings, GMC : No warppoints Format settings, Matrix : Default (H.263) Muxing mode : Packed bitstream Codec ID : XVID Codec ID/Hint : XviD Duration : 1h 23mn Bit rate : 1 274 Kbps Width : 640 pixels Height : 352 pixels Display aspect ratio : 16:9 Frame rate : 29.970 fps Color space : YUV Chroma subsampling : 4:2:0 Bit depth : 8 bits Scan type : Progressive Compression mode : Lossy Bits/(Pixel*Frame) : 0.189 Stream size : 758 MiB (89%) Writing library : XviD 64 Audio ID : 1 Format : MPEG Audio Format version : Version 1 Format profile : Layer 3 Codec ID : 55 Codec ID/Hint : MP3 Duration : 1h 23mn Bit rate mode : Variable Bit rate : 146 Kbps Channel(s) : 2 channels Sampling rate : 48.0 KHz Compression mode : Lossy Stream size : 87.1 MiB (10%) Alignment : Aligned on interleaves Interleave, duration : 24 ms (0.72 video frame)

Download utorrent client from http://www.utorrent.com/ before downloading from below magnet link

[related-news][/related-news]
Dear visitor, you are browsing our website as Guest.
We strongly recommend you to register and login to view hidden contents.

Comments:

Add Comments
 

This site doesn't store any files on its server. We only index and link to content provided by other sites.