Advertise
onlinemovies


Snow White and the Huntsman (2012) DVDScR XviD.AC3 - AXNZ

Published On: 14-06-2012, 15:00

Torrent name:Snow White and the Huntsman (2012) DVDScR XviD.AC3 - AXNZ

Seeds:0

Leechers:0

Health: 

Total size:439.64 MB

Torrent added:2012-06-14 14:43:17

Info hash:976DF8AD6579D1A8676CF40B2C0CDC08CBBDBDCA


Description:

IMDb: http://www.imdb.com/title/tt1735898/ ------------------------------------------- Snow White and the Huntsman (2012) DVDScR_XviD.AC3 - AXNZ --------------------------------------------------------- Sample.........................: Yes Sample Size....................: 41.7 MiB ----------------------------------------- Details: ------- Video ID : 0 Format : MPEG-4 Visual Format profile : [email protected] Format settings, BVOP : Yes Format settings, QPel : No Format settings, GMC : No warppoints Format settings, Matrix : Custom Codec ID : XVID Codec ID/Hint : XviD Duration : 2h 07mn Bit rate : 1 625 Kbps Width : 720 pixels Height : 304 pixels Display aspect ratio : 2.35:1 Frame rate : 23.976 fps Resolution : 24 bits Colorimetry : 4:2:0 Scan type : Progressive Bits/(Pixel*Frame) : 0.310 Stream size : 396 MiB (99%) Writing library : XviD 58 Audio ID : 1 Format : AC-3 Format/Info : Audio Coding 3 Codec ID : 2000 Duration : 2h 07mn Bit rate mode : Constant Bit rate : 192 Kbps Channel(s) : 2 channels Channel positions : L R Sampling rate : 48.0 KHz Stream size : 147 MiB (11%) Alignment : Aligned on interleaves Interleave, duration : 64 ms (1.53 video frames) Interleave, preload duration : 192 ms ----------------------------------------- Plot: ---- In a twist to the fairy tale, the Huntsman ordered to take Snow White into the woods to be killed winds up becoming her protector and mentor in a quest to vanquish the Evil Queen. -------------------------------- Screenshots: ----------- http://imageshack.us/photo/my-images/62/32815216.jpg/ http://imageshack.us/photo/my-images/515/68986399.jpg/ http://imageshack.us/photo/my-images/515/68986399.jpg/ http://imageshack.us/photo/my-images/13/64618180.jpg/ http://imageshack.us/photo/my-images/832/87396868.jpg/ http://imageshack.us/photo/my-images/137/79079965.jpg/ http://imageshack.us/photo/my-images/521/87793500.jpg/ http://imageshack.us/photo/my-images/805/24903866.jpg/ http://imageshack.us/photo/my-images/715/28327668.jpg/ http://imageshack.us/photo/my-images/135/72193602.jpg/ -----------------------------------------------------

Download utorrent client from http://www.utorrent.com/ before downloading from below magnet link

Friends: Free Full Download | Torrent Magnet Download | Graphics Download | Watch Online Movies
Dear visitor, you are browsing our website as Guest.
We strongly recommend you to register and login to view hidden contents.

Comments:

Add Comments
 

This site doesn't store any files on its server. We only index and link to content provided by other sites.