2013Zone For Latest Downloads

 
     
 
Legal Downloads » Torrents » Madagascar 3 Europes Most Wanted (2012) DVDRip XviD-IGUANA
Menu
Home Applications
Games Movies
Music TV Shows
Torrents Graphics

Sitemap

RSS
 
Advanced Search
Last News
Site Info
Top Contributors:
  1    supper88 32766
  2    admin 32671
  3    Whisky 10080
  4    Shark_ 8911
  5    creativelivenew 8706
  6    whathesupa 2799
  7    candymypost 840
  8    hvnteam 629
  9    vuong87 3


Articles:
  This Hour: 0
  Today: 0
  This Month: 59
  All Time: 515636


Torrents:
  Today: 0
  Yesterday: 0
  All Time: 156702


Membership:
  Registered Today :0
  This Hour:0
  This Month:0
  Total:14
  Banned:1

{online}
{inform_torrent}
Friend:
We Recomend
Trend
Trend

Search In Site

Torrents : Madagascar 3 Europes Most Wanted (2012) DVDRip XviD-IGUANA
 

Torrent name:Madagascar 3 Europes Most Wanted (2012) DVDRip XviD-IGUANA

Seeds:0

Leechers:0

Health: 

Total size:1.69 GB

Torrent added:2012-06-13 18:55:26

Info hash:FA80A00FF43787CFB7384CF49D38F9B1E7CC95A5


Description:
 

[img]http://www5.picturepush.com/photo/a/8353128/640/Picture-Box/Madagascar-3-2012.jpg


Madagascar 3: Europe's Most Wanted (2012)

Genres: Animation | Adventure | Comedy | Family 

Format                           : WMV
Format/Info                      : Audio Video Interleave
Format profile                   : OpenDML
Duration                         : 2h 4mn
Overall bit rate                 : 1 312 Kbps
Writing application              : VirtualDubMod 1.5.10.2 (build 2542/release)
Copyright                        : SIGISMUNT

Video
ID                               : 0
Format                           : MPEG-4 Visual
Format profile                   : [email protected]
Format settings, BVOP            : Yes
Format settings, QPel            : No
Format settings, GMC             : No warppoints
Format settings, Matrix          : Default (H.263)
Muxing mode                      : Packed bitstream
Codec ID                         : XVID
Codec ID/Hint                    : XviD
Duration                         : 2h 4mn
Bit rate                         : 1 116 Kbps
Width                            : 640 pixels
Height                           : 272 pixels
Display aspect ratio             : 2.35:1
Frame rate                       : 23.976 fps
Resolution                       : 24 bits
Colorimetry                      : 4:2:0
Scan type                        : Progressive
Bits/(Pixel*Frame)               : 0.267
Stream size                      : 991 MiB (85%)
Writing library                  : XviD 1.2.1 (UTC 2008-12-04)

Audio
ID                               : 1
Format                           : MPEG Audio
Format version                   : Version 1
Format profile                   : Layer 3
Codec ID                         : 55
Codec ID/Hint                    : MP3
Duration                         : 2h 4mn
Bit rate mode                    : Constant
Bit rate                         : 192 Kbps
Channel(s)                       : 2 channels
Sampling rate                    : 48.0 KHz
Resolution                       : 16 bits
Stream size                      : 171 MiB (15%)
Alignment                        : Aligned on interleaves
Interleave, duration             : 652 ms (15.64 video frames)
Interleave, preload duration     : 216 ms
Writing library                  : LAME3.96.1


Storyline:
Alex, Marty, Gloria and Melman are still trying to get back to the Big Apple and their beloved Central Park zoo, but first they need to find the penguins. They travel to Monte Carlo where they attract the attention of Animal Control after gate crashing a party and are joined by the penguins, King Julian and Co., the monkeys and a new arrival: a performing llama. How do a lion, zebra, hippo, giraffe, four penguins, two monkeys, three lemurs and a llama travel through Europe without attracting attention? They join a traveling circus.

Download utorrent client from http://www.utorrent.com/ before downloading from below magnet link

magnet:?xt=urn:btih:FA80A00FF43787CFB7384CF49D38F9B1E7CC95A5


 
 
 
Dear visitor, you went to the site as an unregistered user. We encourage you to register or enter the site under your name.
 
   
 
 (Votes #: 0)