2013Zone For Latest Downloads

 
     
 
Legal Downloads » Torrents » The Rift 2012 VODrip Xvid-THS
Menu
Home Applications
Games Movies
Music TV Shows
Torrents Graphics

Sitemap

RSS
 
Advanced Search
Last News
Site Info
Top Contributors:
  1    supper88 32766
  2    admin 32671
  3    Whisky 10080
  4    Shark_ 8911
  5    creativelivenew 8706
  6    whathesupa 2799
  7    candymypost 840
  8    hvnteam 629
  9    vuong87 3


Articles:
  This Hour: 0
  Today: 0
  This Month: 40
  All Time: 515636


Torrents:
  Today: 0
  Yesterday: 0
  All Time: 156702


Membership:
  Registered Today :0
  This Hour:0
  This Month:0
  Total:14
  Banned:1

{online}
{inform_torrent}
Friend:
We Recomend
Trend
Trend

Search In Site

Torrents : The Rift 2012 VODrip Xvid-THS
 

Torrent name:The Rift 2012 VODrip Xvid-THS

Seeds:69

Leechers:429

Health: 

Total size:1.4 GB

Torrent added:2012-06-14 22:10:01

Info hash:869D6EA9CCD23A2A039B57A01575C24494FE5F6A


Description:
 

Complete name: C:UsersrootDesktopThe Rift 2012.avi
Format: AVI
Format/Info: Audio Video Interleave
File size: 1.40 GiB
Duration: 1h 35mn
Overall bit rate: 2 092 Kbps

SOURCE...... HOknows inc ISO... thanks bro

Video
ID: 0
Format: MPEG-4 Visual
Format profile: Advanced [email protected]
Format settings, BVOP: 2
Format settings, QPel: No
Format settings, GMC: No warppoints
Format settings, Matrix: Default (H.263)
Codec ID: XVID
Codec ID/Hint: XviD
Duration: 1h 35mn
Bit rate: 1 314 Kbps
Width: 704 pixels
Height: 400 pixels
Display aspect ratio: 16:9
Frame rate: 23.976 fps
Color space: YUV
Chroma subsampling: 4:2:0
Bit depth: 8 bits
Scan type: Progressive
Compression mode: Lossy
Bits/(Pixel*Frame): 0.195
Stream size: 898 MiB (63%)
Writing library: XviD 1.2.1 (UTC 2008-12-04)

Audio #1
ID: 1
Format: AC-3
Format/Info: Audio Coding 3
Mode extension: CM (complete main)
Format settings, Endianness: Big
Codec ID: 2000
Duration: 1h 35mn
Bit rate mode: Constant
Bit rate: 384 Kbps
Channel(s): 2 channels
Channel positions: Front: L R
Sampling rate: 48.0 KHz
Bit depth: 16 bits
Compression mode: Lossy
Stream size: 263 MiB (18%)
Alignment: Aligned on interleaves
Interleave, duration: 64 ms (1.53 video frames)
Interleave, preload duration: 192 ms
Title: VTS_01_1 T80 2_0ch 192Kbps DELAY 0ms_new

 
http://www.imdb.com/title/tt1954972/

For decades they have been watching us. Studying us. What are they? Nobody knows. Nobody but Ivan Petrenko Karkarov. The Russian physicist began studying a phenomenon which has been occurring for several decades. In 1982 he found an answer to the strange phenomenon but before he could tell anyone he mysteriously vanished. 30 years later, in a suburb of Los Angeles, Dean Hollister seems to be a normal guy until strange radar anomalies start to appear throughout the world. All of a sudden something starts to happen in the sky, black rifts appear. Something is moving behind those rifts. It's watching us.
 
http://img.sceper.eu/images/n5Tmi.jpg 
http://img.sceper.eu/images/Qp3Td.jpg 
http://img.sceper.eu/images/LQOo6.jpg

Download utorrent client from http://www.utorrent.com/ before downloading from below magnet link

magnet:?xt=urn:btih:869D6EA9CCD23A2A039B57A01575C24494FE5F6A


 
 
 
Dear visitor, you went to the site as an unregistered user. We encourage you to register or enter the site under your name.
 
   
 
 (Votes #: 0)