Advertise
onlinemovies


Flags Of Our Fathers [2006] BRRip XviD - CODY

Published On: 15-06-2012, 15:47

Torrent name:Flags Of Our Fathers [2006] BRRip XviD - CODY

Seeds:0

Leechers:0

Health: 

Total size:1 GB

Torrent added:2012-06-15 16:23:09

Info hash:3058898D84C0ED4879FFBE861BAAA7E1B8970300


Description:

General Complete name : Flags Of Our Fathers [2006] BRRip XviD - CODY.avi Format : AVI Format/Info : Audio Video Interleave File size : 1.00 GiB Duration : 2h 11mn Overall bit rate : 1 088 Kbps Writing application : VirtualDubMod 1.5.10.3 | www.virtualdub-fr.org || (build 2550/release) Writing library : VirtualDubMod build 2550/release Video ID : 0 Format : MPEG-4 Visual Format profile : Advanced [email protected] Format settings, BVOP : 4 Format settings, QPel : No Format settings, GMC : No warppoints Format settings, Matrix : Default (H.263) Codec ID : XVID Codec ID/Hint : XviD Duration : 2h 11mn Bit rate : 951 Kbps Width : 720 pixels Height : 296 pixels Display aspect ratio : 2.40:1 Frame rate : 23.976 fps Color space : YUV Chroma subsampling : 4:2:0 Bit depth : 8 bits Scan type : Progressive Compression mode : Lossy Bits/(Pixel*Frame) : 0.186 Stream size : 897 MiB (87%) Writing library : XviD 1.2.1 (UTC 2008-12-04) Audio ID : 1 Format : MPEG Audio Format version : Version 1 Format profile : Layer 3 Codec ID : 55 Codec ID/Hint : MP3 Duration : 2h 11mn Bit rate mode : Constant Bit rate : 128 Kbps Channel(s) : 2 channels Sampling rate : 48.0 KHz Compression mode : Lossy Stream size : 121 MiB (12%) Alignment : Aligned on interleaves Interleave, duration : 42 ms (1.00 video frame) Interleave, preload duration : 504 ms Writing library : L3.99r Encoding settings : -m s -V 4 -q 2 -lowpass 17 -b 128 IMDB link: http://www.imdb.com/title/tt0418689/ Subtitles included : English, Romanian, Russian Please seed at least 1,5:1 . This way this torrent has a chance to survive ! Thanks . Enjoy !!

Download utorrent client from http://www.utorrent.com/ before downloading from below magnet link

Friends: Free Full Download | Torrent Magnet Download | Graphics Download | Watch Online Movies
Dear visitor, you are browsing our website as Guest.
We strongly recommend you to register and login to view hidden contents.

Comments:

Add Comments
 

This site doesn't store any files on its server. We only index and link to content provided by other sites.