2013Zone For Latest Downloads

 
     
 
Legal Downloads » Torrents » Snow White and the Huntsman 2012 DVDRip XviD-ICE
Menu
Home Applications
Games Movies
Music TV Shows
Torrents Graphics

Sitemap

RSS
 
Advanced Search
Last News
Site Info
Top Contributors:
  1    supper88 32766
  2    admin 32683
  3    Whisky 10080
  4    Shark_ 8911
  5    creativelivenew 8706
  6    whathesupa 2799
  7    candymypost 840
  8    hvnteam 629
  9    vuong87 3


Articles:
  This Hour: 0
  Today: 0
  This Month: 52
  All Time: 515552


Torrents:
  Today: 0
  Yesterday: 0
  All Time: 156675


Membership:
  Registered Today :0
  This Hour:0
  This Month:0
  Total:14
  Banned:1

{online}
{inform_torrent}
Friend:
Nulled Script Download
Torrent Download
Trend
Trend
VPN_ad

Search In Site

Torrents : Snow White and the Huntsman 2012 DVDRip XviD-ICE
 

Torrent name:Snow White and the Huntsman 2012 DVDRip XviD-ICE

Seeds:0

Leechers:0

Health: 

Total size:1.66 GB

Torrent added:2012-06-13 19:11:31

Info hash:418B1DBFC785B00779BA58BF037C7F1014B28A24


Description:
 

http://www3.picturepush.com/photo/a/8388996/640/Picture-Box/snow-white-and-the-huntsman.jpg




Snow White and the Huntsman (2012)
Genres: Action | Adventure | Drama | Fantasy 
Director: Rupert Sanders
Storyline
Format : WMV
Format/Info : Audio Video Interleave
Format profile : OpenDML
Duration : 2h 4mn
Overall bit rate : 1 312 Kbps
Writing application : VirtualDubMod 1.5.10.2 (build 2542/release)
Copyright : SIGISMUNT
Video
ID : 0
Format : MPEG-4 Visual
Format profile : [email protected]
Format settings, BVOP : Yes
Format settings, QPel : No
Format settings, GMC : No warppoints
Format settings, Matrix : Default (H.263)
Muxing mode : Packed bitstream
Codec ID : XVID
Codec ID/Hint : XviD
Duration : 2h 4mn
Bit rate : 1 116 Kbps
Width : 640 pixels
Height : 272 pixels
Display aspect ratio : 2.35:1
Frame rate : 23.976 fps
Resolution : 24 bits
Colorimetry : 4:2:0
Scan type : Progressive
Bits/(Pixel*Frame) : 0.267
Stream size : 991 MiB (85%)
Writing library : XviD 1.2.1 (UTC 2008-12-04)
Audio
ID : 1
Format : MPEG Audio
Format version : Version 1
Format profile : Layer 3
Codec ID : 55
Codec ID/Hint : MP3
Duration : 2h 4mn
Bit rate mode : Constant
Bit rate : 192 Kbps
Channel(s) : 2 channels
Sampling rate : 48.0 KHz
Resolution : 16 bits
Stream size : 171 MiB (15%)
Alignment : Aligned on interleaves
Interleave, duration : 652 ms (15.64 video frames)
Interleave, preload duration : 216 ms
Writing library : LAME3.96.1
Plot:
Snow White is the only person in the land fairer than the evil queen. Unable to tolerate the insult to her vanity, the evil queen decides that Snow White must die. The queen sends a huntsman to kill Snow White. However the huntsman finds himself unable to murder the innocent young woman, and instead ends up training her to become a warrior capable of threatening the queen's reign.

 
http://www2.picturepush.com/photo/a/8353135/640/Picture-Box/Snow-White-and-the-Huntsman-%282012%29--Screenshot.bmp

Download utorrent client from http://www.utorrent.com/ before downloading from below magnet link

magnet:?xt=urn:btih:418B1DBFC785B00779BA58BF037C7F1014B28A24


Snow White and the Huntsman 2012 DVDRip XviD-ICE Fast Download


Cheap VPN

 
 
 
Dear visitor, you went to the site as an unregistered user. We encourage you to register or enter the site under your name.
 
   
 
 (Votes #: 0)