2013Zone For Latest Downloads

 
     
 
Legal Downloads » Torrents » Real Virgin Defloration After Gyn Examination (Incredible Hard H
Menu
Home Applications
Games Movies
Music TV Shows
Torrents Graphics

Sitemap

RSS
 
Advanced Search
Last News
Site Info
Top Contributors:
  1    supper88 32767
  2    admin 32713
  3    Whisky 10093
  4    creativelivenew 8706
  5    Shark_ 7982
  6    whathesupa 2802
  7    candymypost 840
  8    hvnteam 629
  9    vuong87 3


Articles:
  This Hour: 12
  Today: 297
  This Month: 13957
  All Time: 489191


Torrents:
  Today: 0
  Yesterday: 0
  All Time: 159362


Membership:
  Registered Today :0
  This Hour:0
  This Month:0
  Total:14
  Banned:0

{online}
{inform_torrent}
Friend:
free mp3
Calendar
Calendar

Search In Site

Torrents : Real Virgin Defloration After Gyn Examination (Incredible Hard H
 

Torrent name:Real Virgin Defloration After Gyn Examination (Incredible Hard H

Seeds:38

Leechers:20

Health: 

Total size:583.99 MB

Torrent added:2012-06-17 10:04:31

Info hash:89262514CB9D80DD2CB7CD8FDB9209BE1D7C564F


Description:
 

Screens
 
http://bayimg.com/AapBIAadd


Seeding Time 24/7

Don't Forget To Say Thanks If You Like My Post



-=Media Info=-

Format : AVI
Format/Info : Audio Video Interleave
File size : 584 MiB
Duration : 1h 49mn
Overall bit rate : 746 Kbps
Writing library : VirtualDub build 11636/release

Video
ID : 0
Format : MPEG-4 Visual
Codec ID : DIV3
Codec ID/Hint : DivX 3 Low
Duration : 1h 49mn
Bit rate : 652 Kbps
Width : 352 pixels
Height : 240 pixels
Display aspect ratio : 3:2
Frame rate : 15.000 fps
Standard : NTSC
Color space : YUV
Chroma subsampling : 40
Bit depth : 8 bits
Compression mode : Lossy
Bits/(Pixel*Frame) : 0.515
Stream size : 510 MiB (87%)

Audio
ID : 1
Format : PCM
Format settings, Sign : Unsigned
Codec ID : 1
Duration : 1h 49mn
Bit rate mode : Constant
Bit rate : 88.2 Kbps
Channel(s) : 1 channel
Sampling rate : 11.025 KHz
Bit depth : 8 bits
Stream size : 69.0 MiB (12%)
Interleave, duration : 67 ms (1.00 video frame)
Interleave, preload duration : 499 ms

Download Link 1:torrage.com/torrent/89262514CB9D80DD2CB7CD8FDB9209BE1D7C564F.torrent

Download Link 2:torcache.net/torrent/89262514CB9D80DD2CB7CD8FDB9209BE1D7C564F.torrent


Real Virgin Defloration After Gyn Examination (Incredible Hard H Fast Download



 
 
 
Dear visitor, you went to the site as an unregistered user. We encourage you to register or enter the site under your name.
 
   
 
 (Votes #: 0)