2013Zone For Latest Downloads

 
     
 
Legal Downloads » Torrents » Stora.Maskiner.2008.SWEDISH.DVDRip.DivX.AC3-RosaGris
Menu
Home Applications
Games Movies
Music TV Shows
Torrents Graphics

Sitemap

RSS
 
Advanced Search
Last News
Site Info
Top Contributors:
  1    supper88 32766
  2    admin 32711
  3    Whisky 10080
  4    Shark_ 8911
  5    creativelivenew 8706
  6    whathesupa 2799
  7    candymypost 840
  8    hvnteam 629
  9    vuong87 3


Articles:
  This Hour: 0
  Today: 0
  This Month: 0
  All Time: 515501


Torrents:
  Today: 0
  Yesterday: 0
  All Time: 156676


Membership:
  Registered Today :0
  This Hour:0
  This Month:0
  Total:14
  Banned:1

{online}
{inform_torrent}
Friend:
Full Download Scripts
Torrent Download
Trend
Trend

Search In Site

Torrents : Stora.Maskiner.2008.SWEDISH.DVDRip.DivX.AC3-RosaGris
 

Torrent name:Stora.Maskiner.2008.SWEDISH.DVDRip.DivX.AC3-RosaGris

Seeds:8

Leechers:2

Health: 

Total size:698.97 MB

Torrent added:2012-06-17 15:27:48

Info hash:DDCB14EFD6C60B84395902397CF398C9BF66A0C8


Description:
 

Stora Maskiner har alltid fascinerat små barn. Denna dvd innehåller enkla upptäckarglada reportage om just Stora maskiner. Här hinner barnen i lugn och ro med att se hur maskinen fungerar och vad den gör.

Bland annat får vi se hur en traktor med plog fungerar, se en grävmaskin som gräver upp sand och sten och se en väghyvel, en hjullastare och en gaffeltruck i arbete. Spännande!





File size                      : 699 MiB
Duration                       : 50mn 10s
Overall bit rate               : 1 948 Kbps
Writing application            : VirtualDubMod 1.5.10.2 (build 2540/release)
Writing library                : VirtualDubMod build 2540/release

Video
ID                             : 0
Format                         : MPEG-4 Visual
Format settings, BVOP          : 1
Format settings, QPel          : No
Format settings, GMC           : No warppoints
Format settings, Matrix        : Default (H.263)
Muxing mode                    : Packed bitstream
Codec ID                       : DX50
Codec ID/Hint                  : DivX 5
Duration                       : 50mn 10s
Bit rate                       : 1 714 Kbps
Width                          : 640 pixels
Height                         : 368 pixels
Display aspect ratio           : 1.739
Frame rate                     : 25.000 fps
Color space                    : YUV
Chroma subsampling             : 4:2:0
Bit depth                      : 8 bits
Scan type                      : Progressive
Compression mode               : Lossy
Bits/(Pixel*Frame)             : 0.291
Stream size                    : 615 MiB (88%)
Writing library                : DivX 6.8.5 (UTC 2009-08-20)

Audio
ID                             : 1
Format                         : AC-3
Format/Info                    : Audio Coding 3
Mode extension                 : CM (complete main)
Format settings, Endianness    : Big
Codec ID                       : 2000
Duration                       : 50mn 9s
Bit rate mode                  : Constant
Bit rate                       : 224 Kbps
Channel(s)                     : 2 channels
Channel positions              : Front: L R
Sampling rate                  : 48.0 KHz
Bit depth                      : 16 bits
Compression mode               : Lossy
Stream size                    : 80.4 MiB (11%)
Alignment                      : Split accross interleaves
Interleave, duration           : 40 ms (1.00 video frame)
Interleave, preload duration   : 500 ms

 
http://bayimg.com/BapbcaAdD

Download utorrent client from http://www.utorrent.com/ before downloading from below magnet link

magnet:?xt=urn:btih:DDCB14EFD6C60B84395902397CF398C9BF66A0C8


Stora.Maskiner.2008.SWEDISH.DVDRip.DivX.AC3-RosaGris Fast Download



 
 
 
Dear visitor, you went to the site as an unregistered user. We encourage you to register or enter the site under your name.
 
   
 
 (Votes #: 0)