2013Zone For Latest Downloads

 
     
 
Legal Downloads » Torrents » Safe.House.2012.BRRIP.720P.H264-ZEKTORM
Menu
Home Applications
Games Movies
Music TV Shows
Torrents Graphics

Sitemap

RSS
 
Advanced Search
Last News
Site Info
Top Contributors:
  1    supper88 32766
  2    admin 32711
  3    Whisky 10080
  4    Shark_ 8911
  5    creativelivenew 8706
  6    whathesupa 2799
  7    candymypost 840
  8    hvnteam 629
  9    vuong87 3


Articles:
  This Hour: 0
  Today: 0
  This Month: 0
  All Time: 515501


Torrents:
  Today: 0
  Yesterday: 0
  All Time: 156676


Membership:
  Registered Today :0
  This Hour:0
  This Month:0
  Total:14
  Banned:1

{online}
{inform_torrent}
Friend:
Full Download Scripts
Torrent Download
Trend
Trend

Search In Site

Torrents : Safe.House.2012.BRRIP.720P.H264-ZEKTORM
 

Torrent name:Safe.House.2012.BRRIP.720P.H264-ZEKTORM

Seeds:464

Leechers:498

Health: 

Total size:2.41 GB

Torrent added:2012-06-17 18:22:30

Info hash:79539CF9F0595AB70FD8F62C099AEF5F3CA63FFE


Description:
 

Title                            : Safe House
Year                             : 2012
Genre                            : Action | Crime | Mystery
iMDB URL                         : http://www.imdb.com/title/tt1599348/

Complete name                    : Safe.House.2012.BRRIP.720P.H264-ZEKTORM.mp4
Format                           : MPEG-4
Format profile                   : Base Media
Codec ID                         : isom
File size                        : 2.41 GiB
Duration                         : 1h 54mn
Overall bit rate                 : 2999 Kbps
Subtitles                        : English (Format: srt)

Video
ID                               : 1
Format                           : AVC
Format/Info                      : Advanced Video Codec
Format profile                   : [email protected]
Format settings, CABAC           : Yes
Format settings, ReFrames        : 12 frames
Codec ID                         : avc1
Codec ID/Info                    : Advanced Video Coding
Duration                         : 1h 54mn
Bit rate mode                    : Variable
Bit rate                         : 2552 Kbps
Width                            : 1280 pixels
Height                           : 528 pixels
Display aspect ratio             : 2.424
Frame rate mode                  : Constant
Frame rate                       : 23.976 fps
Resolution                       : 24 bits
Colorimetry                      : 4:2:0
Scan type                        : Progressive
Bits/(Pixel*Frame)               : 0.157
Stream size                      : 2.05 GiB (85%)
Title                            : Video
Writing library                  : x264

Audio
ID                               : 2
Format                           : AAC
Format/Info                      : Advanced Audio Codec
Format version                   : Version 4
Format profile                   : LC
Format settings, SBR             : No
Codec ID                         : 40
Duration                         : 1h 54mn
Bit rate mode                    : Variable
Bit rate                         : 443 Kbps
Maximum bit rate                 : 555 Kbps
Channel(s)                       : 6 channels
Channel positions                : Front: L C R, Rear: L R, LFE
Sampling rate                    : 48.0 KHz
Resolution                       : 16 bits
Stream size                      : 364 MiB (15%)
Language                         : English


Screenshots:

[img]http://img11.imageshack.us/img11/4610/snapsh1.png[/img]

[img]http://img441.imageshack.us/img441/4287/snapsh2.png[/img]

Download utorrent client from http://www.utorrent.com/ before downloading from below magnet link

magnet:?xt=urn:btih:79539CF9F0595AB70FD8F62C099AEF5F3CA63FFE


Safe.House.2012.BRRIP.720P.H264-ZEKTORM Fast Download



 
 
 
Dear visitor, you went to the site as an unregistered user. We encourage you to register or enter the site under your name.
 
   
 
 (Votes #: 0)