2013Zone For Latest Downloads

 
     
 
Legal Downloads » Torrents » Point Break-720p MP4 AAC x264 BRRip 1991-CC
Menu
Home Applications
Games Movies
Music TV Shows
Torrents Graphics

Sitemap

RSS
 
Advanced Search
Last News
Site Info
Top Contributors:
  1    supper88 32766
  2    admin 32683
  3    Whisky 10080
  4    Shark_ 8911
  5    creativelivenew 8706
  6    whathesupa 2799
  7    candymypost 840
  8    hvnteam 629
  9    vuong87 3


Articles:
  This Hour: 0
  Today: 0
  This Month: 52
  All Time: 515552


Torrents:
  Today: 0
  Yesterday: 0
  All Time: 156675


Membership:
  Registered Today :0
  This Hour:0
  This Month:0
  Total:14
  Banned:1

{online}
{inform_torrent}
Friend:
Download Nulled Scripts
Torrent Download
Trend
Trend
VPN_ad

Search In Site

Torrents : Point Break-720p MP4 AAC x264 BRRip 1991-CC
 

Torrent name:Point Break-720p MP4 AAC x264 BRRip 1991-CC

Seeds:72

Leechers:115

Health: 

Total size:2.33 GB

Torrent added:2012-06-17 21:30:22

Info hash:98179C70C86479210465FA24FC91BC13B98E9AB8


Description:
 

http://www.imdb.com/title/tt0102685/

Source: Point.Break.1991.720p.Bluray.DTS.x264-RuDE

Subs: Brazilian, Bulgarian, Czech, Danish, Dutch, English, French, German, Greek, Hungarian, Polish, Portuguese, Servian, Slovenian, Spanish, Swedish and Vietnamese.

Sample and Screens included.

General
Complete name                    : Point Break-720p MP4 AAC x264 BRRip 1991-CC.mp4
Format                           : MPEG-4
Format profile                   : Base Media
Codec ID                         : isom
File size                        : 2.30 GiB
Duration                         : 2h 2mn
Overall bit rate                 : 2 697 Kbps
Encoded date                     : UTC 2012-06-15 09:17:40

Video
ID                               : 1
Format                           : AVC
Format/Info                      : Advanced Video Codec
Format profile                   : [email protected]
Format settings, CABAC           : Yes
Format settings, ReFrames        : 5 frames
Codec ID                         : avc1
Codec ID/Info                    : Advanced Video Coding
Duration                         : 2h 2mn
Bit rate mode                    : Variable
Bit rate                         : 2 308 Kbps
Nominal bit rate                 : 2 337 Kbps
Maximum bit rate                 : 21.2 Mbps
Width                            : 1 280 pixels
Height                           : 544 pixels
Display aspect ratio             : 2.35:1
Frame rate mode                  : Variable
Frame rate                       : 23.976 fps
Minimum frame rate               : 23.810 fps
Maximum frame rate               : 24.390 fps
Resolution                       : 24 bits
Colorimetry                      : 4:2:0
Scan type                        : Progressive
Bits/(Pixel*Frame)               : 0.138
Stream size                      : 1.97 GiB (86%)
Writing library                  : x264 core 112

Audio
ID                               : 2
Format                           : AAC
Format/Info                      : Advanced Audio Codec
Format version                   : Version 4
Format profile                   : LC
Format settings, SBR             : No
Codec ID                         : 40
Duration                         : 2h 2mn
Bit rate mode                    : Variable
Bit rate                         : 384 Kbps
Maximum bit rate                 : 670 Kbps
Channel(s)                       : 6 channels
Channel positions                : Front: L C R, Rear: L R, LFE
Sampling rate                    : 48.0 KHz
Resolution                       : 16 bits
Stream size                      : 335 MiB (14%)

Enjoy...

Requested by alorati.

Download utorrent client from http://www.utorrent.com/ before downloading from below magnet link

magnet:?xt=urn:btih:98179C70C86479210465FA24FC91BC13B98E9AB8


Point Break-720p MP4 AAC x264 BRRip 1991-CC Fast Download


Cheap VPN

 
 
 
Dear visitor, you went to the site as an unregistered user. We encourage you to register or enter the site under your name.
 
   
 
 (Votes #: 0)