2013Zone For Latest Downloads

 
     
 
Legal Downloads » Torrents » Illusion - Live (2012) [DVDRip] [XviD]
Menu
Home Applications
Games Movies
Music TV Shows
Torrents Graphics

Sitemap

RSS
 
Advanced Search
Last News
Site Info
Top Contributors:
  1    supper88 32766
  2    admin 32683
  3    Whisky 10080
  4    Shark_ 8911
  5    creativelivenew 8706
  6    whathesupa 2799
  7    candymypost 840
  8    hvnteam 629
  9    vuong87 3


Articles:
  This Hour: 0
  Today: 0
  This Month: 52
  All Time: 515552


Torrents:
  Today: 0
  Yesterday: 0
  All Time: 156675


Membership:
  Registered Today :0
  This Hour:0
  This Month:0
  Total:14
  Banned:1

{online}
{inform_torrent}
Friend:
Download Nulled Scripts
Torrent Download
Trend
Trend
VPN_ad

Search In Site

Torrents : Illusion - Live (2012) [DVDRip] [XviD]
 

Torrent name:Illusion - Live (2012) [DVDRip] [XviD]

Seeds:1

Leechers:2

Health: 

Total size:2 GB

Torrent added:2012-06-25 16:15:21

Info hash:203F5239975486A8356A6A8411C1654FF6FB3F6B


Description:
 

Tracklista DVD:

1. Fame
2. Adubi
3. Big Black Hole
4. Vendetta
5. Pan Nikt
6. To Co Ma Nadejść
7. Again
8. Solą W Oku
9. Tron
10. Skoczny
11. Nóż
12. Wojtek
13. Na Luzie
14. 140
15. Tylko
Bonusy


Dane techniczne:

General
Complete name : Illusion - Live (2012) [DVDRip] [DivX].avi
Format : AVI
Format/Info : Audio Video Interleave
Format profile : OpenDML
File size : 1.06 GiB
Duration : 2h 48mn
Overall bit rate : 900 Kbps
Writing application : Lavf51.12.1

Video
Format : xvid
Codec ID : xvid
Duration : 2h 48mn
Bit rate : 770 Kbps
Width : 720 pixels
Height : 480 pixels
Display aspect ratio : 1.500
Frame rate : 23.976 fps
Standard : NTSC
Resolution : 24 bits
Bits/(Pixel*Frame) : 0.093
Stream size : 929 MiB (86%)

Audio
ID : 1
Format : MPEG Audio
Format version : Version 1
Format profile : Layer 3
Format_Settings_Mode : Joint stereo
Codec ID : 55
Codec ID/Hint : MP3
Duration : 1h 4mn
Bit rate mode : Constant
Bit rate : 320 Kbps
Channel(s) : 2 channels
Sampling rate : 44.1 KHz
Resolution : 16 bits
Stream size : 149 MiB (14%)
Alignment : Aligned on interleaves
Interleave, duration : 26 ms (0.63 video frame)
Writing library : LAME3.97UUUUUUUí

Download utorrent client from http://www.utorrent.com/ before downloading from below magnet link

magnet:?xt=urn:btih:203F5239975486A8356A6A8411C1654FF6FB3F6B


Illusion - Live (2012) [DVDRip] [XviD] Fast Download


Cheap VPN

 
 
 
Dear visitor, you went to the site as an unregistered user. We encourage you to register or enter the site under your name.
 
   
 
 (Votes #: 0)