2013Zone For Latest Downloads

 
     
 
Legal Downloads » Torrents » Nailbiter 2012 DVDRiP AC3-5 1 XviD-AXED
Menu
Home Applications
Games Movies
Music TV Shows
Torrents Graphics

Sitemap

RSS
 
Advanced Search
Last News
Site Info
Top Contributors:
  1    supper88 32766
  2    admin 32693
  3    Whisky 10080
  4    Shark_ 8911
  5    creativelivenew 8706
  6    whathesupa 2799
  7    candymypost 840
  8    hvnteam 629
  9    vuong87 3


Articles:
  This Hour: 10
  Today: 10
  This Month: 62
  All Time: 515562


Torrents:
  Today: 10
  Yesterday: 0
  All Time: 156685


Membership:
  Registered Today :0
  This Hour:0
  This Month:0
  Total:14
  Banned:1

{online}
{inform_torrent}
Friend:
We Recomend
Trend
Trend
VPN_ad

Search In Site

Torrents : Nailbiter 2012 DVDRiP AC3-5 1 XviD-AXED
 

Torrent name:Nailbiter 2012 DVDRiP AC3-5 1 XviD-AXED

Seeds:4

Leechers:3

Health: 

Total size:1.63 GB

Torrent added:2012-06-25 21:15:36

Info hash:3B18389AEE694A7217751C3F176F5F53D6DD81DC


Description:
 

http://www.imdb.com/title/tt2122424/
 
PLOT INFO:
 A mother and three daughters get caught up in a tornado and take shelter in a storm cellar. While trapped inside the cellar, they quickly discover that they are not alone.
 
http://www.shotpix.com/images/47103688438666373542.png 
http://www.shotpix.com/images/41299518859171122504.png
 
General
 Complete name : Nailbiter.2012.DVDRiP.AC3-5.1.XviD-AXED.avi
 Format : AVI
 Format/Info : Audio Video Interleave
 File size : 1.61 GiB
 Duration : 1h 21mn
 Overall bit rate : 2 827 Kbps
 
Video
 ID : 0
 Format : MPEG-4 Visual
 Format profile : Advanced [email protected]
 Format settings, BVOP : 1
 Format settings, QPel : No
 Format settings, GMC : No warppoints
 Format settings, Matrix : Default (H.263)
 Codec ID : XVID
 Codec ID/Hint : XviD
 Duration : 1h 21mn
 Bit rate : 2 435 Kbps
 Width : 720 pixels
 Height : 304 pixels
 Display aspect ratio : 2.35:1
 Frame rate : 23.976 fps
 Color space : YUV
 Chroma subsampling : 4:2:0
 Bit depth : 8 bits
 Scan type : Progressive
 Compression mode : Lossy
 Bits/(Pixel*Frame) : 0.464
 Stream size : 1.39 GiB (86%)
 Writing library : XviD 1.2.1 (UTC 2008-12-04)
 
Audio
 ID : 1
 Format : AC-3
 Format/Info : Audio Coding 3
 Mode extension : CM (complete main)
 Codec ID : 2000
 Duration : 1h 21mn
 Bit rate mode : Constant
 Bit rate : 384 Kbps
 Channel(s) : 6 channels
 Channel positions : Front: L C R, Side: L R, LFE
 Sampling rate : 48.0 KHz
 Bit depth : 16 bits
 Compression mode : Lossy
 Stream size : 224 MiB (14%)
 Alignment : Aligned on interleaves
 Interleave, duration : 64 ms (1.53 video frames)
 Interleave, preload duration : 192 ms
 Title : VTS_01_1 T80 3_2ch 448Kbps DELAY 0ms_new

Download utorrent client from http://www.utorrent.com/ before downloading from below magnet link

magnet:?xt=urn:btih:3B18389AEE694A7217751C3F176F5F53D6DD81DC


Nailbiter 2012 DVDRiP AC3-5 1 XviD-AXED Fast Download


Cheap VPN

 
 
 
Dear visitor, you went to the site as an unregistered user. We encourage you to register or enter the site under your name.
 
   
 
 (Votes #: 0)