2013Zone For Latest Downloads

 
     
 
Legal Downloads » Torrents » Summer days With Coo 2007 Audio-Jap+Thai Subs-Eng+Thai FLIpresen
Menu
Home Applications
Games Movies
Music TV Shows
Torrents Graphics

Sitemap

RSS
 
Advanced Search
Last News
Site Info
Top Contributors:
  1    supper88 32766
  2    admin 32756
  3    Whisky 10080
  4    Shark_ 8911
  5    creativelivenew 8706
  6    whathesupa 2799
  7    candymypost 840
  8    hvnteam 629
  9    vuong87 3


Articles:
  This Hour: 0
  Today: 0
  This Month: 0
  All Time: 515443


Torrents:
  Today: 0
  Yesterday: 0
  All Time: 156715


Membership:
  Registered Today :0
  This Hour:0
  This Month:0
  Total:14
  Banned:1

{online}
{inform_torrent}
Friend:
Full Download Scripts
Torrent Download
Trend
Trend

Search In Site

Torrents : Summer days With Coo 2007 Audio-Jap+Thai Subs-Eng+Thai FLIpresen
 

Torrent name:Summer days With Coo 2007 Audio-Jap+Thai Subs-Eng+Thai FLIpresen

Seeds:2

Leechers:2

Health: 

Total size:7.56 GB

Torrent added:2012-06-28 11:54:12

Info hash:8126737BCE8121B25B2C49487B2E55A4BBA4E9B9


Description:
 

Kappa no ku to natsu yasumi / Summer days with Coo - Keiichi Hara - 2007 
http://www.imdb.com/title/tt1179773/

Original DVD full rip
Audio - Thai+Jap
Subs - Eng+Thai
PAL
(technical details way bellow)
Genre: Animation / Family / Fantasy

Magnificent independent anime movie. The closest thing i've seen in years to the best Miyazaki. 

Review and plot: http://twitchfilm.com/reviews/2009/09/camera-japan-festival-summer-days-with-coo-review.php

Asia Pacific Screen Awards
2007 Nominated for Best Animated Feature Film
Yutaka Sugiyama

Awards of the Japanese Academy
2008 Nominated for Best Animation Film

Mainichi Film Concours
2008 Won Best Animation Film

=================================================================================

On peut violer les lois sans qu'elles crient. (Talleyrand)

=================================================================================


General
Complete name : E:VIDEO_TSVTS_01_2.VOB
Format : MPEG-PS
File size : 1 024 MiB
Duration : 18mn 52s
Overall bit rate : 7 584 Kbps

Video
ID : 224 (0xE0)
Format : MPEG Video
Format version : Version 2
Format profile : [email protected]
Format settings, BVOP : Yes
Format settings, Matrix : Default
Format settings, GOP : M=3, N=13
Duration : 18mn 52s
Bit rate : 6 800 Kbps
Width : 720 pixels
Height : 576 pixels
Display aspect ratio : 2.40:1
Frame rate : 25.000 fps
Standard : PAL
Color space : YUV
Chroma subsampling : 4:2:0
Bit depth : 8 bits
Scan type : Interlaced
Scan order : Top Field First
Compression mode : Lossy
Bits/(Pixel*Frame) : 0.656
Stream size : 917 MiB (90%)
Color primaries : BT.470-2 System B, BT.470-2 System G
Transfer characteristics : BT.470-2 System B, BT.470-2 System G
Matrix coefficients : BT.470-2 System B, BT.470-2 System G

Audio #1
ID : 189 (0xBD)-128 (0x80)
Format : AC-3
Format/Info : Audio Coding 3
Mode extension : CM (complete main)
Format settings, Endianness : Big
Muxing mode : DVD-Video
Duration : 18mn 52s
Bit rate mode : Constant
Bit rate : 192 Kbps
Channel(s) : 2 channels
Channel positions : Front: L R
Sampling rate : 48.0 KHz
Bit depth : 16 bits
Compression mode : Lossy
Delay relative to video : -168ms
Stream size : 25.9 MiB (3%)

Audio #2
ID : 189 (0xBD)-129 (0x81)
Format : AC-3
Format/Info : Audio Coding 3
Mode extension : CM (complete main)
Format settings, Endianness : Big
Muxing mode : DVD-Video
Duration : 18mn 52s
Bit rate mode : Constant
Bit rate : 448 Kbps
Channel(s) : 6 channels
Channel positions : Front: L C R, Side: L R, LFE
Sampling rate : 48.0 KHz
Bit depth : 16 bits
Compression mode : Lossy
Delay relative to video : -200ms
Stream size : 60.5 MiB (6%)

Text #1
ID : 189 (0xBD)-32 (0x20)
Format : RLE
Format/Info : Run-length encoding
Muxing mode : DVD-Video

Text #2
ID : 189 (0xBD)-33 (0x21)
Format : RLE
Format/Info : Run-length encoding
Muxing mode : DVD-Video

Menu

Download utorrent client from http://www.utorrent.com/ before downloading from below magnet link

magnet:?xt=urn:btih:8126737BCE8121B25B2C49487B2E55A4BBA4E9B9


Summer days With Coo 2007 Audio-Jap+Thai Subs-Eng+Thai FLIpresen Fast Download



 
 
 
Dear visitor, you went to the site as an unregistered user. We encourage you to register or enter the site under your name.
 
   
 
 (Votes #: 0)