2013Zone For Latest Downloads

 
     
 
Legal Downloads » Torrents » zeljka voli pusit
Menu
Home Applications
Games Movies
Music TV Shows
Torrents Graphics

Sitemap

RSS
 
Advanced Search
Last News
Site Info
Top Contributors:
  1    supper88 32766
  2    admin 32651
  3    Whisky 10080
  4    Shark_ 8911
  5    creativelivenew 8706
  6    whathesupa 2799
  7    candymypost 840
  8    hvnteam 629
  9    vuong87 3


Articles:
  This Hour: 0
  Today: 0
  This Month: 13
  All Time: 515682


Torrents:
  Today: 0
  Yesterday: 0
  All Time: 156685


Membership:
  Registered Today :0
  This Hour:0
  This Month:0
  Total:14
  Banned:1

{online}
{inform_torrent}
Friend:
We Recomend
Trend
Trend
onlinemovies

Search In Site

ad1

Torrents : zeljka voli pusit
 

Torrent name:zeljka voli pusit

Seeds:2

Leechers:1

Health: 

Total size:12.95 MB

Torrent added:2012-07-02 10:28:05

Info hash:6C0CF905BA9D5726CE563F6C6B4D5953605E2D1F


Description:
 

Complete name                            : zeljka voli pusit.avi
Format                                   : AVI
Format/Info                              : Audio Video Interleave
File size                                : 12.9 MiB
Duration                                 : 2mn 49s
Overall bit rate                         : 641 Kbps
Writing application                      : MEncoder SVN-r29352(20090610-gcc4.3.3)
Writing library                          : MPlayer

Video
ID                                       : 0
Format                                   : MPEG-4 Visual
Format profile                           : Advanced [email protected]
Format settings, BVOP                    : 2
Format settings, QPel                    : No
Format settings, GMC                     : No warppoints
Format settings, Matrix                  : Default (H.263)
Codec ID                                 : XVID
Codec ID/Hint                            : XviD
Duration                                 : 2mn 49s
Bit rate                                 : 502 Kbps
Width                                    : 640 pixels
Height                                   : 480 pixels
Display aspect ratio                     : 4:3
Frame rate                               : 18.000 fps
Color space                              : YUV
Chroma subsampling                       : 4:2:0
Bit depth                                : 8 bits
Scan type                                : Progressive
Compression mode                         : Lossy
Bits/(Pixel*Frame)                       : 0.091
Stream size                              : 10.1 MiB (78%)
Writing library                          : XviD 1.2.1 (UTC 2008-12-04)

Audio
ID                                       : 1
Format                                   : MPEG Audio
Format version                           : Version 1
Format profile                           : Layer 3
Mode                                     : Joint stereo
Mode extension                           : MS Stereo
Codec ID                                 : 55
Codec ID/Hint                            : MP3
Duration                                 : 2mn 49s
Bit rate mode                            : Constant
Bit rate                                 : 128 Kbps
Channel(s)                               : 2 channels
Sampling rate                            : 44.1 KHz
Compression mode                         : Lossy
Delay relative to video                  : 56ms
Stream size                              : 2.58 MiB (20%)
Alignment                                : Aligned on interleaves
Interleave, duration                     : 26 ms (0.47 video frame)
Interleave, preload duration             : 522 ms
Writing library                          : LAME3.98

Download utorrent client from http://www.utorrent.com/ before downloading from below magnet link

magnet:?xt=urn:btih:6C0CF905BA9D5726CE563F6C6B4D5953605E2D1F


 
 
 
Dear visitor, you went to the site as an unregistered user. We encourage you to register or enter the site under your name.
 
 
  • Eduardo De Crescenzo - Amico Che Voli (1982)

  • zeljka voli pusit download links are externally hosted on Extabit, Rapidshare, Rapidgator, Netload, Uploaded and zeljka voli pusit also available directly on Torrent Sources.
 
 
 (Votes #: 0)