2013Zone For Latest Downloads

 
     
 
Legal Downloads » Torrents » The Fugitive-720p MP4 AAC x264 BRRip 1993-CC
Menu
Home Applications
Games Movies
Music TV Shows
Torrents Graphics

Sitemap

RSS
 
Advanced Search
Last News
Site Info
Top Contributors:
  1    supper88 32766
  2    admin 32651
  3    Whisky 10080
  4    Shark_ 8911
  5    creativelivenew 8706
  6    whathesupa 2799
  7    candymypost 840
  8    hvnteam 629
  9    vuong87 3


Articles:
  This Hour: 0
  Today: 0
  This Month: 13
  All Time: 515682


Torrents:
  Today: 0
  Yesterday: 0
  All Time: 156685


Membership:
  Registered Today :0
  This Hour:0
  This Month:0
  Total:14
  Banned:1

{online}
{inform_torrent}
Friend:
We Recomend
Trend
Trend
onlinemovies

Search In Site

ad1

Torrents : The Fugitive-720p MP4 AAC x264 BRRip 1993-CC
 

Torrent name:The Fugitive-720p MP4 AAC x264 BRRip 1993-CC

Seeds:23

Leechers:12

Health: 

Total size:2.34 GB

Torrent added:2012-06-28 19:06:17

Info hash:EED0816EF60928264EC99764E05C903770647E1F


Description:
 

http://www.imdb.com/title/tt0106977/

Source: The.Fugitive.1993.1080p.BluRay.x264-CULTHD

Subs: Arabic, Bulgarian, Czech, Danish, Dutch, English, Finnish, Greek, Hebrew, Hungarian, Indonesian, Italian, Norwegian, Romanian, Slovenian, Spanish, Swedish, Thai and Vietnamese.

Sample and Screens included.

General
Complete name                    : The Fugitive-720p MP4 AAC x264 BRRip 1993-CC.mp4
Format                           : MPEG-4
Format profile                   : Base Media
Codec ID                         : isom
File size                        : 2.31 GiB
Duration                         : 2h 10mn
Overall bit rate                 : 2 539 Kbps
Encoded date                     : UTC 2012-06-24 17:07:27

Video
ID                               : 1
Format                           : AVC
Format/Info                      : Advanced Video Codec
Format profile                   : [email protected]
Format settings, CABAC           : Yes
Format settings, ReFrames        : 5 frames
Codec ID                         : avc1
Codec ID/Info                    : Advanced Video Coding
Duration                         : 2h 10mn
Bit rate mode                    : Variable
Bit rate                         : 2 156 Kbps
Maximum bit rate                 : 20.7 Mbps
Width                            : 1 280 pixels
Height                           : 720 pixels
Display aspect ratio             : 16:9
Frame rate mode                  : Variable
Frame rate                       : 23.976 fps
Minimum frame rate               : 23.810 fps
Maximum frame rate               : 24.390 fps
Resolution                       : 24 bits
Colorimetry                      : 4:2:0
Scan type                        : Progressive
Bits/(Pixel*Frame)               : 0.098
Stream size                      : 1.96 GiB (85%)
Writing library                  : x264 core 112


Audio
ID                               : 2
Format                           : AAC
Format/Info                      : Advanced Audio Codec
Format version                   : Version 4
Format profile                   : LC
Format settings, SBR             : No
Codec ID                         : 40
Duration                         : 2h 10mn
Bit rate mode                    : Variable
Bit rate                         : 384 Kbps
Maximum bit rate                 : 469 Kbps
Channel(s)                       : 6 channels
Channel positions                : Front: L C R, Rear: L R, LFE
Sampling rate                    : 48.0 KHz
Resolution                       : 16 bits
Stream size                      : 358 MiB (15%)
Language                         : English

Enjoy..

Requested by sv8pro.

More coming up.

Download utorrent client from http://www.utorrent.com/ before downloading from below magnet link

magnet:?xt=urn:btih:EED0816EF60928264EC99764E05C903770647E1F


 
 
 
Dear visitor, you went to the site as an unregistered user. We encourage you to register or enter the site under your name.
 
   
 
 (Votes #: 0)