2013Zone For Latest Downloads

 
     
 
Legal Downloads » Torrents » Falling Down-720p MP4 AAC x264 BRRip 1993-CC
Menu
Home Applications
Games Movies
Music TV Shows
Torrents Graphics

Sitemap

RSS
 
Advanced Search
Last News
Site Info
Top Contributors:
  1    supper88 32766
  2    admin 32651
  3    Whisky 10080
  4    Shark_ 8911
  5    creativelivenew 8706
  6    whathesupa 2799
  7    candymypost 840
  8    hvnteam 629
  9    vuong87 3


Articles:
  This Hour: 0
  Today: 0
  This Month: 13
  All Time: 515682


Torrents:
  Today: 0
  Yesterday: 0
  All Time: 156685


Membership:
  Registered Today :0
  This Hour:0
  This Month:0
  Total:14
  Banned:1

{online}
{inform_torrent}
Friend:
We Recomend
Trend
Trend
onlinemovies

Search In Site

ad1

Torrents : Falling Down-720p MP4 AAC x264 BRRip 1993-CC
 

Torrent name:Falling Down-720p MP4 AAC x264 BRRip 1993-CC

Seeds:29

Leechers:8

Health: 

Total size:2.15 GB

Torrent added:2012-06-26 18:01:08

Info hash:01305F6167B60AA752FF2071761FF97D875C6EE5


Description:
 

http://www.imdb.com/title/tt0106856/

Source: Falling.Down.1993.720p.BluRay.x264-DON

Subs: Brazilian, Czech, Danish, Dutch, English, Estonian, Farsi-Persian, Finnish, French, German, Greek, Italian, Portuguese, Romanian, Slovenian, Spanish, Swedish and Vietnamese.

Sample and Screens included.

General
Complete name                    : Falling Down-720p MP4 AAC x264 BRRip 1993-CC.mp4
Format                           : MPEG-4
Format profile                   : Base Media
Codec ID                         : isom
File size                        : 2.12 GiB
Duration                         : 1h 52mn
Overall bit rate                 : 2 693 Kbps
Encoded date                     : UTC 2012-06-19 16:48:34

Video
ID                               : 1
Format                           : AVC
Format/Info                      : Advanced Video Codec
Format profile                   : [email protected]
Format settings, CABAC           : Yes
Format settings, ReFrames        : 5 frames
Codec ID                         : avc1
Codec ID/Info                    : Advanced Video Coding
Duration                         : 1h 52mn
Bit rate mode                    : Variable
Bit rate                         : 2 304 Kbps
Nominal bit rate                 : 2 319 Kbps
Maximum bit rate                 : 14.3 Mbps
Width                            : 1 280 pixels
Height                           : 528 pixels
Display aspect ratio             : 2.35:1
Frame rate mode                  : Variable
Frame rate                       : 23.976 fps
Minimum frame rate               : 15.932 fps
Maximum frame rate               : 24.390 fps
Resolution                       : 24 bits
Colorimetry                      : 4:2:0
Scan type                        : Progressive
Bits/(Pixel*Frame)               : 0.142
Stream size                      : 1.81 GiB (86%)
Writing library                  : x264 core 112

Audio
ID                               : 2
Format                           : AAC
Format/Info                      : Advanced Audio Codec
Format version                   : Version 4
Format profile                   : LC
Format settings, SBR             : No
Codec ID                         : 40
Duration                         : 1h 52mn
Bit rate mode                    : Variable
Bit rate                         : 384 Kbps
Maximum bit rate                 : 605 Kbps
Channel(s)                       : 6 channels
Channel positions                : Front: L C R, Rear: L R, LFE
Sampling rate                    : 48.0 KHz
Resolution                       : 16 bits
Stream size                      : 309 MiB (14%)
Language                         : English


Enjoy...

Requested by DreamExtractor. 

More coming up.

Download utorrent client from http://www.utorrent.com/ before downloading from below magnet link

magnet:?xt=urn:btih:01305F6167B60AA752FF2071761FF97D875C6EE5


 
 
 
Dear visitor, you went to the site as an unregistered user. We encourage you to register or enter the site under your name.
 
   
 
 (Votes #: 0)