Advertise
onlinemovies


Ice.Age.4.Continental.Drift.2012.Cam.XviD.Feel-Free

Published On: 27-08-2012, 03:02

Torrent name:Ice.Age.4.Continental.Drift.2012.Cam.XviD.Feel-Free

Seeds:516

Leechers:71

Health: 

Total size:940.87 MB

Torrent added:2012-07-05 23:15:12

Info hash:62FD5026BA1B0679F6B68124E2667E453583694E


Description:

8888888888 888 8888888888 888 888 888 888 888 888 8888888 .d88b. .d88b. 888 8888888 888d888 .d88b. .d88b. 888 d8P Y8b d8P Y8b 888 888 888P" d8P Y8b d8P Y8b 888 88888888 88888888 888 888 888 88888888 88888888 888 Y8b. Y8b. 888 888 888 Y8b. Y8b. 888 "Y8888 "Y8888 888 888 888 "Y8888 "Y8888 Genre:Animation | Adventure | Comedy Language:English IMDb: http://www.imdb.com/title/tt1667889 Source:26K Thanks! Encoder:Tony Format : AVI Format/Info : Audio Video Interleave File size : 940 MiB Duration : 1h 19mn Overall bit rate : 1 649 Kbps Video ID : 0 Format : MPEG-4 Visual Format profile : Advanced [email protected] Format settings, BVOP : 1 Format settings, QPel : No Format settings, GMC : No warppoints Format settings, Matrix : Default (H.263) Codec ID : XVID Codec ID/Hint : XviD Duration : 1h 19mn Bit rate : 1 448 Kbps Width : 640 pixels Height : 280 pixels Display aspect ratio : 2.25:1 Frame rate : 25.000 fps Color space : YUV Chroma subsampling : 4:2:0 Bit depth : 8 bits Scan type : Progressive Compression mode : Lossy Bits/(Pixel*Frame) : 0.323 Stream size : 825 MiB (88%) Writing library : XviD 1.2.1 (UTC 2008-12-04) Audio ID : 1 Format : AC-3 Format/Info : Audio Coding 3 Mode extension : CM (complete main) Format settings, Endianness : Big Codec ID : 2000 Duration : 1h 19mn Bit rate mode : Constant Bit rate : 192 Kbps Channel(s) : 2 channels Channel positions : Front: L R Sampling rate : 48.0 KHz Bit depth : 16 bits Compression mode : Lossy Stream size : 109 MiB (12%) Alignment : Aligned on interleaves Interleave, duration : 40 ms (1.00 video frame) Interleave, preload duration : 512 ms Plot: Manny, Diego, and Sid embark upon another adventure after their continent is set adrift. Using an iceberg as a ship, they encounter sea creatures and battle pirates as they explore a new world. Screen Shots: http://img266.imageshack.us/img266/9304/vlcsnap2012070520h02m22.png http://img594.imageshack.us/img594/310/vlcsnap2012070520h03m21.png http://img545.imageshack.us/img545/3289/vlcsnap2012070520h04m50.png 8888888888 888 8888888888 888 888 888 888 888 888 8888888 .d88b. .d88b. 888 8888888 888d888 .d88b. .d88b. 888 d8P Y8b d8P Y8b 888 888 888P" d8P Y8b d8P Y8b 888 88888888 88888888 888 888 888 88888888 88888888 888 Y8b. Y8b. 888 888 888 Y8b. Y8b. 888 "Y8888 "Y8888 888 888 888 "Y8888 "Y8888

Download utorrent client from http://www.utorrent.com/ before downloading from below magnet link


Friends: Free Full Download | Torrent Magnet Download | Graphics Download | Watch Online Movies
Dear visitor, you are browsing our website as Guest.
We strongly recommend you to register and login to view hidden contents.

Comments:

Add Comments
 

This site doesn't store any files on its server. We only index and link to content provided by other sites.