Advertise
onlinemovies


[ATG] American pie 04 [2012] 720p.mp4

Published On: 31-08-2012, 00:32

Torrent name:[ATG] American pie 04 [2012] 720p.mp4

Seeds:3

Leechers:1

Health: 

Total size:1.45 GB

Torrent added:2012-07-05 18:35:54

Info hash:41C3F72C0E09BE09300E580C4B2A3806DBB370E9


Description:

General Complete name : American pie 04 - American reunion [ATG 2012] 720p.mp4 Format : MPEG-4 Format profile : Base Media Codec ID : isom File size : 1.45 GiB Duration : 1h 53mn Overall bit rate mode : Variable Overall bit rate : 1 820 Kbps Video ID : 1 Format : AVC Format/Info : Advanced Video Codec Format profile : [email protected] Format settings, CABAC : Yes Format settings, ReFrames : 8 frames Codec ID : avc1 Codec ID/Info : Advanced Video Coding Duration : 1h 53mn Bit rate : 1 500 Kbps Maximum bit rate : 7 009 Kbps Width : 1 280 pixels Height : 720 pixels Display aspect ratio : 16:9 Frame rate mode : Constant Frame rate : 23.976 fps Color space : YUV Chroma subsampling : 4:2:0 Bit depth : 8 bits Scan type : Progressive Bits/(Pixel*Frame) : 0.068 Stream size : 1.19 GiB (82%) Writing library : x264 core 118 r2085 8a62835 Audio ID : 2 Format : AAC Format/Info : Advanced Audio Codec Format profile : LC Codec ID : 40 Duration : 1h 53mn Bit rate mode : Variable Bit rate : 317 Kbps Maximum bit rate : 377 Kbps Channel(s) : 6 channels Channel positions : Front: L C R, Side: L R, LFE Sampling rate : 48.0 KHz Compression mode : Lossy Stream size : 258 MiB (17%)

Download utorrent client from http://www.utorrent.com/ before downloading from below magnet link

[related-news][/related-news]
Dear visitor, you are browsing our website as Guest.
We strongly recommend you to register and login to view hidden contents.

Comments:

Add Comments
 

This site doesn't store any files on its server. We only index and link to content provided by other sites.