Advertise
onlinemovies


A Streetcar Named Desire [1951] BRRip XviD - CODY

Published On: 3-09-2012, 00:33

Torrent name:A Streetcar Named Desire [1951] BRRip XviD - CODY

Seeds:6

Leechers:0

Health: 

Total size:1 GB

Torrent added:2012-07-06 17:17:47

Info hash:22826E3561BB9747B8D93F7F5908AAE8DE370750


Description:

General Complete name : A Streetcar Named Desire [1951] BRRip XviD - CODY.avi Format : AVI Format/Info : Audio Video Interleave File size : 1.00 GiB Duration : 2h 4mn Overall bit rate : 1 147 Kbps Writing application : VirtualDubMod 1.5.10.3 | www.virtualdub-fr.org || (build 2550/release) Writing library : VirtualDubMod build 2550/release Video ID : 0 Format : MPEG-4 Visual Format profile : Advanced [email protected] Format settings, BVOP : 4 Format settings, QPel : No Format settings, GMC : No warppoints Format settings, Matrix : Default (H.263) Codec ID : XVID Codec ID/Hint : XviD Duration : 2h 4mn Bit rate : 1 009 Kbps Width : 720 pixels Height : 528 pixels Display aspect ratio : 4:3 Frame rate : 23.976 fps Color space : YUV Chroma subsampling : 4:2:0 Bit depth : 8 bits Scan type : Progressive Compression mode : Lossy Bits/(Pixel*Frame) : 0.111 Stream size : 902 MiB (88%) Writing library : XviD 1.2.1 (UTC 2008-12-04) Audio ID : 1 Format : MPEG Audio Format version : Version 1 Format profile : Layer 3 Codec ID : 55 Codec ID/Hint : MP3 Duration : 2h 4mn Bit rate mode : Constant Bit rate : 128 Kbps Channel(s) : 1 channel Sampling rate : 48.0 KHz Compression mode : Lossy Stream size : 114 MiB (11%) Alignment : Aligned on interleaves Interleave, duration : 42 ms (1.00 video frame) Interleave, preload duration : 504 ms Writing library : L3.99r Encoding settings : -m m -V 4 -q 2 -lowpass 20.5 -b 128 IMDB link: http://www.imdb.com/title/tt0044081/ Subtitles included : Romanian Please seed at least 1,5:1 . This way this torrent has a chance to survive ! Thanks . Enjoy !!

Download utorrent client from http://www.utorrent.com/ before downloading from below magnet link

[related-news][/related-news]
Dear visitor, you are browsing our website as Guest.
We strongly recommend you to register and login to view hidden contents.

Comments:

Add Comments
 

This site doesn't store any files on its server. We only index and link to content provided by other sites.