Advertise
onlinemovies


Ice Age Continental Drift 2012 HDCAM x264 AAC-UNiQUE

Published On: 4-09-2012, 00:33

Torrent name:Ice Age Continental Drift 2012 HDCAM x264 AAC-UNiQUE

Seeds:73

Leechers:16

Health: 

Total size:717.29 MB

Torrent added:2012-07-07 18:38:41

Info hash:97CD8B9F2BB8CC17FFB6520C4C6C717F1F9AB1AC


Description:

## ## ## ## #### ####### ## ## ######## ## ## ### ## ## ## ## ## ## ## ## ## #### ## ## ## ## ## ## ## ## ## ## ## ## ## ## ## ## ## ###### ## ## ## #### ## ## ## ## ## ## ## ## ## ## ### ## ## ## ## ## ## ####### ## ## #### ##### ## ####### ######## General Complete name : Ice Age Continental Drift 2012 HDCAM x264 AAC-UNiQUE.mp4 Format : MPEG-4 Format profile : Base Media Codec ID : isom File size : 700 MiB Duration : 1h 19mn Overall bit rate mode : Variable Overall bit rate : 1 239 Kbps Encoded date : UTC 2012-07-07 15:43:45 Video ID : 1 Format : AVC Format/Info : Advanced Video Codec Format profile : [email protected] Format settings, CABAC : Yes Format settings, ReFrames : 3 frames Codec ID : avc1 Codec ID/Info : Advanced Video Coding Duration : 1h 19mn Bit rate mode : Variable Bit rate : 1 141 Kbps Maximum bit rate : 40.0 Mbps Width : 720 pixels Height : 306 pixels Display aspect ratio : 2.35:1 Frame rate mode : Constant Frame rate : 23.976 fps Color space : YUV Chroma subsampling : 4:2:0 Bit depth : 8 bits Scan type : Progressive Bits/(Pixel*Frame) : 0.216 Stream size : 645 MiB (92%) Writing library : x264 core 125 r2200 999b753 Audio ID : 2 Format : AAC Format/Info : Advanced Audio Codec Format profile : LC Codec ID : 40 Duration : 1h 18mn Bit rate mode : Variable Bit rate : 96.0 Kbps Maximum bit rate : 102 Kbps Channel(s) : 2 channels Channel positions : Front: L R Sampling rate : 48.0 KHz Compression mode : Lossy Stream size : 53.3 MiB (8%) Language : English Encoded date : UTC 2012-07-07 15:44:05 Source : HDCAM 26K - Thanks! Storyline: Manny, Diego, and Sid embark upon another adventure after their continent is set adrift. Using an iceberg as a ship, they encounter sea creatures and battle pirates as they explore a new world. http://www.imdb.com/title/tt1667889 Screens: ## ## ## ## #### ####### ## ## ######## ## ## ### ## ## ## ## ## ## ## ## ## #### ## ## ## ## ## ## ## ## ## ## ## ## ## ## ## ## ## ###### ## ## ## #### ## ## ## ## ## ## ## ## ## ## ### ## ## ## ## ## ## ####### ## ## #### ##### ## ####### ########

Download utorrent client from http://www.utorrent.com/ before downloading from below magnet link

[related-news][/related-news]
Dear visitor, you are browsing our website as Guest.
We strongly recommend you to register and login to view hidden contents.

Comments:

Add Comments
 

This site doesn't store any files on its server. We only index and link to content provided by other sites.