Advertise
onlinemovies


Grindhouse 2007 Extended Version.mkv

Published On: 4-09-2012, 00:34

Torrent name:Grindhouse 2007 Extended Version.mkv

Seeds:3

Leechers:5

Health: 

Total size:16.75 GB

Torrent added:2012-07-07 13:50:20

Info hash:642CDA7C877241B429617FE7DDEE9DE1E05398B6


Description:

This is an extended version of Grindhouse. I've taken both of the separate versions of Planet Terror and Death Proof as well as the 2-in-one version with the fake trailers in the middle, recoded them and cut them both together. No quality loss whatsoever, looks as good as usual, now it's just the 2-in-one version but with both of the extended cuts of Death Proof and Planet Terror. Subtitles are in English and fitting for all. Specs are: Format : Matroska Format version : Version 2 File size : 16.7 GiB Duration : 3h 45mn Overall bit rate : 10.6 Mbps Encoded date : UTC 2012-07-07 16:58:44 Writing application : mkvmerge v5.6.0 ('Kenya Kane') built on May 27 2012 16:44:04 Writing library : libebml v1.2.3 + libmatroska v1.3.0 Video ID : 1 Format : MPEG-4 Visual Format profile : [email protected] Format settings, BVOP : No Format settings, QPel : No Format settings, GMC : No warppoints Format settings, Matrix : Default (H.263) Codec ID : XVID Codec ID/Hint : XviD Duration : 3h 45mn Bit rate : 9 771 Kbps Width : 1 920 pixels Height : 1 080 pixels Display aspect ratio : 16:9 Frame rate : 23.976 fps Color space : YUV Chroma subsampling : 4:2:0 Bit depth : 8 bits Scan type : Progressive Compression mode : Lossy Bits/(Pixel*Frame) : 0.197 Stream size : 15.4 GiB (92%) Writing library : XviD 64 Default : Yes Forced : No Audio ID : 2 Format : AC-3 Format/Info : Audio Coding 3 Mode extension : CM (complete main) Format settings, Endianness : Big Muxing mode : Header stripping Codec ID : A_AC3 Duration : 3h 45mn Bit rate mode : Constant Bit rate : 640 Kbps Channel(s) : 6 channels Channel positions : Front: L C R, Side: L R, LFE Sampling rate : 48.0 KHz Bit depth : 16 bits Compression mode : Lossy Stream size : 1.01 GiB (6%) Default : Yes Forced : No Text ID : 3 Format : UTF-8 Codec ID : S_TEXT/UTF8 Codec ID/Info : UTF-8 Plain Text Default : Yes Forced : No

Download utorrent client from http://www.utorrent.com/ before downloading from below magnet link


Friends: Free Full Download | Torrent Magnet Download | Graphics Download | Watch Online Movies
Dear visitor, you are browsing our website as Guest.
We strongly recommend you to register and login to view hidden contents.

Comments:

Add Comments
 

This site doesn't store any files on its server. We only index and link to content provided by other sites.