Advertise
onlinemovies


Mystic River-720p MP4 AAC x264 BRRip 2003-CC

Published On: 4-09-2012, 14:31

Torrent name:Mystic River-720p MP4 AAC x264 BRRip 2003-CC

Seeds:40

Leechers:6

Health: 

Total size:2.42 GB

Torrent added:2012-07-07 20:36:13

Info hash:FBF21937101DC8DEA55F86FAA4BED74FA90D370D


Description:

http://www.imdb.com/title/tt0327056/ Source: Mystic.River.2003.720p.BluRay.x264-MELiTE Subs: Arabic, Croatian, Danish, Dutch, English, Farsi-Persian, French, Greek, Indonesian, Italian, Portuguese, Romanian, Servian, Slovenian, Spanish, Turkish and Vietnamese. Sample and Screens included. General Complete name : Mystic River-720p MP4 AAC x264 BRRip 2003-CC.mp4 Format : MPEG-4 Format profile : Base Media Codec ID : isom File size : 2.39 GiB Duration : 2h 17mn Overall bit rate : 2 483 Kbps Encoded date : UTC 2012-07-04 14:39:18 Video ID : 1 Format : AVC Format/Info : Advanced Video Codec Format profile : [email protected] Format settings, CABAC : Yes Format settings, ReFrames : 5 frames Codec ID : avc1 Codec ID/Info : Advanced Video Coding Duration : 2h 17mn Bit rate mode : Variable Bit rate : 2 105 Kbps Maximum bit rate : 11.5 Mbps Width : 1 280 pixels Height : 528 pixels Display aspect ratio : 2.35:1 Frame rate mode : Variable Frame rate : 23.976 fps Minimum frame rate : 15.873 fps Maximum frame rate : 24.390 fps Resolution : 24 bits Colorimetry : 4:2:0 Scan type : Progressive Bits/(Pixel*Frame) : 0.130 Stream size : 2.02 GiB (84%) Writing library : x264 core 112 Audio ID : 2 Format : AAC Format/Info : Advanced Audio Codec Format version : Version 4 Format profile : LC Format settings, SBR : No Codec ID : 40 Duration : 2h 17mn Bit rate mode : Variable Bit rate : 384 Kbps Maximum bit rate : 771 Kbps Channel(s) : 6 channels Channel positions : Front: L C R, Rear: L R, LFE Sampling rate : 48.0 KHz Resolution : 16 bits Stream size : 377 MiB (15%) Language : English Enjoy... Requested by cmptrluvr's.

Download utorrent client from http://www.utorrent.com/ before downloading from below magnet link

[related-news][/related-news]
Dear visitor, you are browsing our website as Guest.
We strongly recommend you to register and login to view hidden contents.

Comments:

Add Comments
 

This site doesn't store any files on its server. We only index and link to content provided by other sites.