Advertise
onlinemovies


The Remains Of The Day [1993] DVDRip XviD - CODY

Published On: 5-09-2012, 00:34

Torrent name:The Remains Of The Day [1993] DVDRip XviD - CODY

Seeds:5

Leechers:0

Health: 

Total size:1 GB

Torrent added:2012-07-06 23:55:17

Info hash:598F24880B7ED35E9917F1E2CEC9A2B2535CAFFA


Description:

General Complete name : The Remains Of The Day [1993] DVDRip XviD - CODY.avi Format : AVI Format/Info : Audio Video Interleave File size : 1.00 GiB Duration : 2h 8mn Overall bit rate : 1 113 Kbps Writing application : VirtualDubMod 1.5.10.3 | www.virtualdub-fr.org || (build 2550/release) Writing library : VirtualDubMod build 2550/release Video ID : 0 Format : MPEG-4 Visual Format profile : Advanced [email protected] Format settings, BVOP : 4 Format settings, QPel : No Format settings, GMC : No warppoints Format settings, Matrix : Default (H.263) Codec ID : XVID Codec ID/Hint : XviD Duration : 2h 8mn Bit rate : 975 Kbps Width : 720 pixels Height : 304 pixels Display aspect ratio : 2.35:1 Frame rate : 25.000 fps Color space : YUV Chroma subsampling : 4:2:0 Bit depth : 8 bits Scan type : Progressive Compression mode : Lossy Bits/(Pixel*Frame) : 0.178 Stream size : 898 MiB (88%) Writing library : XviD 1.2.1 (UTC 2008-12-04) Audio ID : 1 Format : MPEG Audio Format version : Version 1 Format profile : Layer 3 Codec ID : 55 Codec ID/Hint : MP3 Duration : 2h 8mn Bit rate mode : Constant Bit rate : 128 Kbps Channel(s) : 2 channels Sampling rate : 48.0 KHz Compression mode : Lossy Stream size : 118 MiB (12%) Alignment : Aligned on interleaves Interleave, duration : 40 ms (1.00 video frame) Interleave, preload duration : 504 ms Writing library : L3.99r Encoding settings : -m s -V 4 -q 2 -lowpass 17 -b 128 IMDB link: http://www.imdb.com/title/tt0107943/ Subtitles included : Romanian Please seed at least 1,5:1 . This way this torrent has a chance to survive ! Thanks . Enjoy !!

Download utorrent client from http://www.utorrent.com/ before downloading from below magnet link

[related-news][/related-news]
Dear visitor, you are browsing our website as Guest.
We strongly recommend you to register and login to view hidden contents.

Comments:

Add Comments
 

This site doesn't store any files on its server. We only index and link to content provided by other sites.