Advertise
onlinemovies


Ultimate.Spiderman.S01E11.Venom.Attack.720p.WEB-DL.DD5.1.H264-NT

Published On: 6-09-2012, 21:34

Torrent name:Ultimate.Spiderman.S01E11.Venom.Attack.720p.WEB-DL.DD5.1.H264-NT

Seeds:10

Leechers:1

Health: 

Total size:647.11 MB

Torrent added:2012-07-08 01:05:43

Info hash:70D238C5F35615160E38562098B633F3CD4D3F57


Description:

========== Media Info ========== Video ID : 1 Format : AVC Format/Info : Advanced Video Codec Format profile : [email protected] Format settings, CABAC : No Format settings, ReFrames : 2 frames Muxing mode : Header stripping Codec ID : V_MPEG4/ISO/AVC Duration : 22mn 8s Bit rate mode : Variable Bit rate : 3 948 Kbps Width : 1 280 pixels Height : 720 pixels Display aspect ratio : 16:9 Frame rate : 23.976 fps Color space : YUV Chroma subsampling : 4:2:0 Bit depth : 8 bits Scan type : Progressive Bits/(Pixel*Frame) : 0.179 Stream size : 625 MiB (89%) Language : English Color primaries : BT.709-5, BT.1361, IEC 61966-2-4, SMPTE RP177 Transfer characteristics : BT.709-5, BT.1361 Matrix coefficients : BT.709-5, BT.1361, IEC 61966-2-4 709, SMPTE RP177 Audio ID : 2 Format : AC-3 Format/Info : Audio Coding 3 Mode extension : CM (complete main) Muxing mode : Header stripping Codec ID : A_AC3 Duration : 22mn 8s Bit rate mode : Constant Bit rate : 384 Kbps Channel(s) : 6 channels Channel positions : Front: L C R, Side: L R, LFE Sampling rate : 48.0 KHz Bit depth : 16 bits Compression mode : Lossy Stream size : 60.8 MiB (9%) Language : English

Download utorrent client from http://www.utorrent.com/ before downloading from below magnet link

[related-news][/related-news]
Dear visitor, you are browsing our website as Guest.
We strongly recommend you to register and login to view hidden contents.

Comments:

Add Comments
 

This site doesn't store any files on its server. We only index and link to content provided by other sites.