Advertise
onlinemovies


Bol Bachchan (2012) DVDSCR XviD Multi Subs - Exclusive

Published On: 17-12-2012, 14:33

Torrent name:Bol Bachchan (2012) DVDSCR XviD Multi Subs - Exclusive

Seeds:5

Leechers:0

Health: 

Total size:733.08 MB

Torrent added:2012-07-08 15:10:13

Info hash:35CF9A23BB37405289DC493B210BE46D94697F0F


Description:

Poster: http://imgh.us/294219,xcitefun-bol-bachchan-poster.jpg Info: Format : AVI Format/Info : Audio Video Interleave File size : 699 MiB Duration : 2h 24mn Overall bit rate : 675 Kbps Video ID : 0 Format : MPEG-4 Visual Format profile : Advanced [email protected] Format settings, BVOP : 2 Format settings, QPel : Yes Format settings, GMC : No warppoints Format settings, Matrix : Default (H.263) Codec ID : XVID Codec ID/Hint : XviD Duration : 2h 24mn Bit rate : 569 Kbps Width : 640 pixels Height : 272 pixels Display aspect ratio : 2.35:1 Frame rate : 23.976 fps Color space : YUV Chroma subsampling : 4:2:0 Bit depth : 8 bits Scan type : Progressive Compression mode : Lossy Bits/(Pixel*Frame) : 0.136 Stream size : 589 MiB (84%) Writing library : XviD 1.2.1 (UTC 2008-12-04) Audio ID : 1 Format : MPEG Audio Format version : Version 1 Format profile : Layer 3 Mode : Joint stereo Mode extension : MS Stereo Codec ID : 55 Codec ID/Hint : MP3 Duration : 2h 24mn Bit rate mode : Constant Bit rate : 96.0 Kbps Channel(s) : 2 channels Sampling rate : 32.0 KHz Compression mode : Lossy Stream size : 99.4 MiB (14%) Alignment : Aligned on interleaves Interleave, duration : 36 ms (0.86 video frame) Interleave, preload duration : 216 ms Title : 1cd T80 2_0ch 384Kbps DELAY 0ms Writing library : LAME3.90.3 SCREENS: http://imgh.us/gZxCa.jpg http://imgh.us/izhGJ.jpg http://imgh.us/Lt3CK.jpg http://imgh.us/WgcA.jpg http://imgh.us/vrPUX.jpg http://imgh.us/SFzyE.jpg http://imgh.us/AQ7fd.jpg

Download utorrent client from http://www.utorrent.com/ before downloading from below magnet link

[related-news][/related-news]
Dear visitor, you are browsing our website as Guest.
We strongly recommend you to register and login to view hidden contents.

Comments:

Add Comments
 

This site doesn't store any files on its server. We only index and link to content provided by other sites.