Advertise
onlinemovies


Stage 8 - Tour de France 2012 - Thibaut Pinot

Published On: 18-12-2012, 07:34

Torrent name:Stage 8 - Tour de France 2012 - Thibaut Pinot

Seeds:0

Leechers:0

Health: 

Total size:414.39 MB

Torrent added:2012-07-08 10:31:00

Info hash:B9A40465858F4C0557DEDABFD6E0DAC801C1B1FA


Description:

Last 16,7km. Commentary in Spanish. HD 720p. Duration: 00:36:08.00, start: 0.000000, bitrate: 1603 kb/s Stream #0.0(und): Video: h264 (Main), yuv420p, 1280x720 [PAR 1:1 DAR 16:9], 1500 kb/s, 24.99 fps, 25 tbr, 25 tbn, 50 tbc Stream #0.1(und): Audio: mp3, 44100 Hz, stereo, s16, 95 kb/s

Download utorrent client from http://www.utorrent.com/ before downloading from below magnet link

Friends: Free Full Download | Torrent Magnet Download | Graphics Download | Watch Online Movies
Dear visitor, you are browsing our website as Guest.
We strongly recommend you to register and login to view hidden contents.

Comments:

Add Comments
 

This site doesn't store any files on its server. We only index and link to content provided by other sites.