Advertise
onlinemovies


The Gods Must Be Crazy I (1980)

Published On: 18-12-2012, 21:30

Torrent name:The Gods Must Be Crazy I (1980)

Seeds:9

Leechers:1

Health: 

Total size:708.89 MB

Torrent added:2012-07-08 17:39:10

Info hash:8DACB2C7322BD6EC887868CDCCF5B3342F696DAB


Description:

CrazyThe Gods Must be Crazy.avi Format : AVI Format/Info : Audio Video Interleave File size : 709 MiB Duration : 1h 44mn Overall bit rate : 949 Kbps Video ID : 0 Format : MPEG-4 Visual Format profile : [email protected] Format settings, BVOP : No Format settings, QPel : No Format settings, GMC : No warppoints Format settings, Matrix : Default (H.263) Codec ID : DX50 Codec ID/Hint : DivX 5 Duration : 1h 44mn Bit rate : 809 Kbps Width : 720 pixels Height : 304 pixels Display aspect ratio : 2.35:1 Frame rate : 25.000 fps Color space : YUV Chroma subsampling : 4:2:0 Bit depth : 8 bits Scan type : Progressive Compression mode : Lossy Bits/(Pixel*Frame) : 0.148 Stream size : 604 MiB (85%) Writing library : FFmpeg0.4.8b4680 Audio ID : 1 Format : MPEG Audio Format version : Version 1 Format profile : Layer 3 Mode : Joint stereo Mode extension : MS Stereo Codec ID : 55 Codec ID/Hint : MP3 Duration : 1h 44mn Bit rate mode : Constant Bit rate : 128 Kbps Channel(s) : 2 channels Sampling rate : 44.1 KHz Compression mode : Lossy Delay relative to video : 26ms Stream size : 95.6 MiB (13%) Alignment : Split accross interleaves Interleave, duration : 26 ms (0.65 video frame) Writing library : LAME3.96 sub srt greek

Download utorrent client from http://www.utorrent.com/ before downloading from below magnet link

[related-news][/related-news]
Dear visitor, you are browsing our website as Guest.
We strongly recommend you to register and login to view hidden contents.

Comments:

Add Comments
 

This site doesn't store any files on its server. We only index and link to content provided by other sites.