Advertise
onlinemovies


Get.the.Gringo.2012.BRRIP.720P.H264-ZEKTORM

Published On: 19-12-2012, 07:30

Torrent name:Get.the.Gringo.2012.BRRIP.720P.H264-ZEKTORM

Seeds:4

Leechers:3

Health: 

Total size:2.14 GB

Torrent added:2012-07-08 17:03:04

Info hash:8E21D1CE66D2B027C173D0613D5EBDDACB3CD8F9


Description:

Title : Get the Gringo Year : 2012 Genre : Action | Crime | Drama iMDB URL : http://www.imdb.com/title/tt1567609/ Complete name : Get.the.Gringo.2012.BRRIP.720P.H264-ZEKTORM.mp4 Format : MPEG-4 Format profile : Base Media Codec ID : isom File size : 2.14 GiB Duration : 1h 35mn Overall bit rate : 3192 Kbps Subtitles : English (Format: srt) Video ID : 1 Format : AVC Format/Info : Advanced Video Codec Format profile : [email protected] Format settings, CABAC : Yes Format settings, ReFrames : 12 frames Codec ID : avc1 Codec ID/Info : Advanced Video Coding Duration : 1h 35mn Bit rate mode : Variable Bit rate : 2757 Kbps Width : 1280 pixels Height : 528 pixels Display aspect ratio : 2.424 Frame rate mode : Constant Frame rate : 23.976 fps Resolution : 24 bits Colorimetry : 4:2:0 Scan type : Progressive Bits/(Pixel*Frame) : 0.170 Stream size : 1.85 GiB (86%) Title : Video Writing library : x264 Audio ID : 2 Format : AAC Format/Info : Advanced Audio Codec Format version : Version 4 Format profile : LC Format settings, SBR : No Codec ID : 40 Duration : 1h 35mn Bit rate mode : Variable Bit rate : 431 Kbps Maximum bit rate : 525 Kbps Channel(s) : 6 channels Channel positions : Front: L C R, Rear: L R, LFE Sampling rate : 48.0 KHz Resolution : 16 bits Stream size : 296 MiB (13%) Language : English Screenshots: [img]http://img195.imageshack.us/img195/5148/snapgtg1.png[/img] [img]http://img832.imageshack.us/img832/5365/snapgtg2.png[/img]

Download utorrent client from http://www.utorrent.com/ before downloading from below magnet link

[related-news][/related-news]
Dear visitor, you are browsing our website as Guest.
We strongly recommend you to register and login to view hidden contents.

Comments:

Add Comments
 

This site doesn't store any files on its server. We only index and link to content provided by other sites.