Advertise
onlinemovies


Apocalypto [2006] 720p BRRip H264 AC3 - CODY

Published On: 20-12-2012, 14:33

Torrent name:Apocalypto [2006] 720p BRRip H264 AC3 - CODY

Seeds:47

Leechers:10

Health: 

Total size:2.48 GB

Torrent added:2012-07-08 01:40:28

Info hash:4E3E8ED55D80B057D08713FBDCCE3B36E0C8AF8B


Description:

General Complete name : Apocalypto [2006] 720p BRRip H264 AC3 - CODY.mp4 Format : MPEG-4 Format profile : Base Media Codec ID : isom File size : 2.48 GiB Duration : 2h 18mn Overall bit rate mode : Variable Overall bit rate : 2 570 Kbps Encoded date : UTC 2012-07-06 02:30:29 Video ID : 1 Format : AVC Format/Info : Advanced Video Codec Format profile : [email protected] Format settings, CABAC : Yes Format settings, ReFrames : 5 frames Codec ID : avc1 Codec ID/Info : Advanced Video Coding Duration : 2h 18mn Bit rate mode : Variable Bit rate : 2 120 Kbps Maximum bit rate : 20.0 Mbps Width : 1 280 pixels Height : 688 pixels Display aspect ratio : 1.860 Frame rate mode : Constant Frame rate : 23.976 fps Color space : YUV Chroma subsampling : 4:2:0 Bit depth : 8 bits Scan type : Progressive Bits/(Pixel*Frame) : 0.100 Stream size : 2.05 GiB (82%) Writing library : x264 core 119 r2106 07efeb4 Encoding settings : rc=2pass Audio ID : 2 Format : AC-3 Format/Info : Audio Coding 3 Mode extension : CM (complete main) Codec ID : ac-3 Duration : 2h 18mn Bit rate mode : Constant Bit rate : 448 Kbps Channel(s) : 6 channels Channel positions : Front: L C R, Side: L R, LFE Sampling rate : 48.0 KHz Bit depth : 16 bits Compression mode : Lossy Stream size : 443 MiB (17%) Audio language : Maya IMDB link: http://www.imdb.com/title/tt0472043/ Subtitles included: Bulgarian, Chinese, Czech, Danish, Dutch, English, Finnish, German, Greek, Hungarian, Norwegian, Polish, Portuguese, Portuguese-Brazilian, Romanian, Spanish, Swedish, Turkish, Vietnamese Please seed at least 1,5:1 . This way this torrent has a chance to survive ! Thanks . Enjoy !!

Download utorrent client from http://www.utorrent.com/ before downloading from below magnet link

[related-news][/related-news]
Dear visitor, you are browsing our website as Guest.
We strongly recommend you to register and login to view hidden contents.

Comments:

Add Comments
 

This site doesn't store any files on its server. We only index and link to content provided by other sites.