Advertise
onlinemovies


2 Days In New York 2012 HDRip XviD HS

Published On: 20-12-2012, 21:31

Torrent name:2 Days In New York 2012 HDRip XviD HS

Seeds:10

Leechers:1

Health: 

Total size:1.43 GB

Torrent added:2012-07-09 00:11:21

Info hash:11CBFA1FFCDF2BF2CD64BF5A36749DA938621C30


Description:

http://www.imdb.com/title/tt1602472/ Format : AVI Format/Info : Audio Video Interleave Format profile : OpenDML File size : 1.43 GiB Duration : 1h 35mn Overall bit rate : 2 140 Kbps Writing application : Lavf52.103.0 Video ID : 1 Format : MPEG-4 Visual Format profile : [email protected] Format settings, BVOP : No Format settings, QPel : No Format settings, GMC : No warppoints Format settings, Matrix : Default (H.263) Codec ID : FMP4 Duration : 1h 35mn Bit rate : 1 998 Kbps Width : 640 pixels Height : 346 pixels Display aspect ratio : 1.85:1 Frame rate : 23.976 fps Color space : YUV Chroma subsampling : 4:2:0 Bit depth : 8 bits Scan type : Progressive Compression mode : Lossy Bits/(Pixel*Frame) : 0.376 Stream size : 1.33 GiB (93%) Writing library : Lavc52.116.0 Audio ID : 0 Format : MPEG Audio Format version : Version 1 Format profile : Layer 3 Mode : Joint stereo Mode extension : MS Stereo Codec ID : 55 Codec ID/Hint : MP3 Duration : 1h 35mn Bit rate mode : Constant Bit rate : 128 Kbps Channel(s) : 2 channels Sampling rate : 44.1 KHz Compression mode : Lossy Stream size : 87.4 MiB (6%) Alignment : Aligned on interleaves Interleave, duration : 42 ms (1.00 video frame) Writing library : LAME3.98.4

Download utorrent client from http://www.utorrent.com/ before downloading from below magnet link

[related-news][/related-news]
Dear visitor, you are browsing our website as Guest.
We strongly recommend you to register and login to view hidden contents.

Comments:

Add Comments
 

This site doesn't store any files on its server. We only index and link to content provided by other sites.