Advertise
onlinemovies


Falling.Skies.S02E05.HDTV.DivX-Atilla82

Published On: 24-12-2012, 00:30

Torrent name:Falling.Skies.S02E05.HDTV.DivX-Atilla82

Seeds:11

Leechers:1

Health: 

Total size:348.35 MB

Torrent added:2012-07-09 13:31:08

Info hash:B945A6379585E34DA24732488E8BE45E4432FEC7


Description:

Falling.Skies.S02E05.HDTV.DivX-Atilla82 http://www.imdb.com/title/tt1462059/ Survivors of an alien attack on earth gather together to fight for their lives and fight back. language: English General Complete name : Falling.Skies.S02E05.HDTV.DivX-Atilla82.avi Format : AVI Format/Info : Audio Video Interleave File size : 348 MiB Duration : 41mn 57s Overall bit rate : 1 160 Kbps Writing application : VirtualDubMod 1.5.10.2 (build 2540/release) Writing library : VirtualDubMod build 2540/release Video ID : 0 Format : MPEG-4 Visual Format settings, BVOP : 1 Format settings, QPel : No Format settings, GMC : No warppoints Format settings, Matrix : Default (H.263) Muxing mode : Packed bitstream Codec ID : DX50 Codec ID/Hint : DivX 5 Duration : 41mn 57s Bit rate : 1 023 Kbps Width : 680 pixels Height : 384 pixels Display aspect ratio : 16:9 Frame rate : 23.976 fps Color space : YUV Chroma subsampling : 4:2:0 Bit depth : 8 bits Scan type : Progressive Compression mode : Lossy Bits/(Pixel*Frame) : 0.163 Stream size : 307 MiB (88%) Writing library : DivX 3330 Audio ID : 1 Format : MPEG Audio Format version : Version 1 Format profile : Layer 3 Codec ID : 55 Codec ID/Hint : MP3 Duration : 41mn 57s Bit rate mode : Constant Bit rate : 128 Kbps Channel(s) : 2 channels Sampling rate : 48.0 KHz Compression mode : Lossy Stream size : 38.4 MiB (11%) Alignment : Aligned on interleaves Interleave, duration : 42 ms (1.00 video frame) Interleave, preload duration : 504 ms SCREENS http://www.pohrani.com/f/1D/FB/1rkxsPIy/screens.jpg

Download utorrent client from http://www.utorrent.com/ before downloading from below magnet link

[related-news][/related-news]
Dear visitor, you are browsing our website as Guest.
We strongly recommend you to register and login to view hidden contents.

Comments:

Add Comments
 

This site doesn't store any files on its server. We only index and link to content provided by other sites.