Advertise
onlinemovies


Masterpiece_Mystery_(The Soul of Genius)_720p.HDTV.x264_TTL

Published On: 26-12-2012, 00:30

Torrent name:Masterpiece_Mystery_(The Soul of Genius)_720p.HDTV.x264_TTL

Seeds:2

Leechers:4

Health: 

Total size:1.79 GB

Torrent added:2012-07-09 17:31:58

Info hash:6827B135CE88596C3095B8CCFB76B8BB6B137F11


Description:

This is from the American PBS debut on 7-08-2012. Kevin Whately returns as Inspector Lewis teamed with his cool, cerebral partner Detective Sergeant Hathaway (Laurence Fox). Lewis, the former working-class foil to the erudite Detective Inspector Morse, tackles murder and mayhem with the help of Hathaway. In the all-new 2012 season, Lewis and Hathaway tackle four cases in the seemingly perfect academic haven of Oxford: The Soul of Genius (July 8), Generation of Vipers (July 15), Fearful Symmetry (July 22) and The Indelible Stain (July 29). Guest stars include Toby Stephens (Jane Eyre), James Fleet (Little Dorrit) and Celia Imrie (Cranford). Also, don't miss the following encore presentations from Inspector Lewis, Series IV: The Mind Has Mountains (Aug 26) and The Gift of Promise (Sept. 2). All the extras are in separate files. Enjoy and please share. Masterpiece_Mystery_(The Soul of Genius)_720p.HDTV.x264_TTL.mkv Format : Matroska File size : 1.72 GiB Duration : 1h 20mn Overall bit rate : 3 077 Kbps Writing application : HandBrake 0.9.5 Writing library : libmkv 0.6.4.1 Video ID : 1 Format : AVC Format/Info : Advanced Video Codec Format profile : [email protected] Format settings, CABAC : Yes Format settings, ReFrames : 4 frames Muxing mode : Container [email protected] Codec ID : V_MPEG4/ISO/AVC Duration : 1h 20mn Bit rate : 2 792 Kbps Nominal bit rate : 2 847 Kbps Width : 1 280 pixels Height : 720 pixels Display aspect ratio : 16:9 Frame rate mode : Variable Frame rate : 29.970 fps Resolution : 8 bits Colorimetry : 4:2:0 Scan type : Progressive Bits/(Pixel*Frame) : 0.101 Stream size : 1.56 GiB (91%) Writing library : x264 core 112 Audio ID : 2 Format : AC-3 Format/Info : Audio Coding 3 Codec ID : A_AC3 Duration : 1h 20mn Bit rate mode : Constant Bit rate : 224 Kbps Channel(s) : 2 channels Channel positions : L R Sampling rate : 48.0 KHz Stream size : 128 MiB (7%)

Download utorrent client from http://www.utorrent.com/ before downloading from below magnet link

[related-news][/related-news]
Dear visitor, you are browsing our website as Guest.
We strongly recommend you to register and login to view hidden contents.

Comments:

Add Comments
 

This site doesn't store any files on its server. We only index and link to content provided by other sites.