Advertise
onlinemovies


Dawn of The Dead 1978

Published On: 26-12-2012, 00:30

Torrent name:Dawn of The Dead 1978

Seeds:4

Leechers:1

Health: 

Total size:5.58 GB

Torrent added:2012-07-09 15:12:38

Info hash:6A24AA2ED475F2FCE28A34BAA43AEA4D2126CDA9


Description:

Video Format : AVC Format/Info : Advanced Video Codec Format profile : [email protected] Format settings, CABAC : Yes Format settings, ReFrames : 15 frames Codec ID : V_MPEG4/ISO/AVC Duration : 2h 7mn Bit rate : 5 006 Kbps Width : 1 920 pixels Height : 1 040 pixels Display aspect ratio : 1.85:1 Original display aspect ratio : 1.85:1 Frame rate mode : Variable Frame rate : 23.976 fps Audio #1 Format : AC-3 Format/Info : Audio Coding 3 Format profile : Dolby Digital Mode extension : CM (complete main) Format settings, Endianness : Big Codec ID : A_AC3 Duration : 2h 7mn Bit rate mode : Constant Bit rate : 160 Kbps Channel(s) : 2 channels Channel positions : Front: L R Sampling rate : 48.0 KHz Bit depth : 16 bits Compression mode : Lossy Stream size : 145 MiB (3%) Language : English Audio #2 Format : AC-3 Format/Info : Audio Coding 3 Mode extension : CM (complete main) Format settings, Endianness : Big Codec ID : A_AC3 Duration : 2h 7mn Bit rate mode : Constant Bit rate : 640 Kbps Channel(s) : 6 channels Channel positions : Front: L C R, Side: L R, LFE Sampling rate : 48.0 KHz Bit depth : 16 bits Compression mode : Lossy Stream size : 582 MiB (10%) Audio #3 Format : AC-3 Format/Info : Audio Coding 3 Mode extension : CM (complete main) Format settings, Endianness : Big Codec ID : A_AC3 Duration : 2h 7mn Bit rate mode : Constant Bit rate : 192 Kbps Channel(s) : 2 channels Channel positions : Front: L R Sampling rate : 48.0 KHz Bit depth : 16 bits Compression mode : Lossy Stream size : 175 MiB (3%) Audio #4 Format : AC-3 Format/Info : Audio Coding 3 Mode extension : CM (complete main) Format settings, Endianness : Big Codec ID : A_AC3 Duration : 2h 7mn Bit rate mode : Constant Bit rate : 160 Kbps Channel(s) : 2 channels Channel positions : Front: L R Sampling rate : 48.0 KHz Bit depth : 16 bits Compression mode : Lossy Stream size : 145 MiB (3%) Sequel of "Night of the Living Dead." It's some time after the dead have started to rise and attack the shocked living, and civilization has started to crumble. In the city of Philadelphia, Pennsylvania, USA, TV station workers Stephen and Francine decide to run as the situation worsens and, after meeting Roger and Peter, two special policemen ordered to move any people into rescue stations who have also choose to run, steal the station's helicopter and fly west in an attempt to find a safe place. After several attempts during their flight across Pennsylvania, they find a deserted mega-mall in Monroeville, outside Pittsburgh, and decide to wait there until the crisis is over. They clear the mall of the undead and board the entrances up with tractor-trailers and then sit down and wait. Can they hold out, not only against the growing, moaning, and hungry masses of the undead outside, against murderous looters, but, most importantly of all, can they hold out and not lose their sanity...?

Download utorrent client from http://www.utorrent.com/ before downloading from below magnet link


Friends: Free Full Download | Torrent Magnet Download | Graphics Download | Watch Online Movies
Dear visitor, you are browsing our website as Guest.
We strongly recommend you to register and login to view hidden contents.

Comments:

Add Comments
 

This site doesn't store any files on its server. We only index and link to content provided by other sites.