Advertise
onlinemovies


Рыба_Франкен?тейн.Frankenfish.2004.HDsatrip.1080.RUS.only

Published On: 26-12-2012, 00:32

Torrent name:Рыба_Франкенштейн.Frankenfish.2004.HDsatrip.1080.RUS.only

Seeds:1

Leechers:0

Health: 

Total size:4.14 GB

Torrent added:2012-07-09 21:57:54

Info hash:16DAA2C375D6EDEA92A85F0EF9D9CC253AF93DA4


Description:

╨╨░╨╖╨▓╨░╨╜╨╕╨╡: ╨╤╨▒╨░ ╨╤╨░╨╜╨║╨╡╨╜╤╤╨╡╨╣╨╜╨░ ╨₧╤╨╕╨│╨╕╨╜╨░╨╗╤╨╜╨╛╨╡ ╨╜╨░╨╖╨▓╨░╨╜╨╕╨╡: Frankenfish ╨╨╛╨┤ ╨▓╤╤╨╛╨┤╨░: 2004 ╨╨░╨╜╤: ╤╨╢╨░╤╤, ╤╨░╨╜╤╨░╤╤╨╕╨║╨░, ╨▒╨╛╨╡╨▓╨╕╨║, ╤╤╨╕╨╗╨╗╨╡╤, ╨║╨╛╨╝╨╡╨┤╨╕╤ ╨╨╡╨╢╨╕╤╤╨╡╤: ╨╨░╤╨║ ╨╨╕╨┐╨┐╨╡ ╨ ╤╨╛╨╗╤╤: ╨╨╛╨╝╨░╤ ╨╤╨░╨╜╨░, ╨╨╛╤╨╕ ╨╨╕╤╨╗╨╖, ╨. ╨. ╨₧╨▒╨╡╤╤, ╨╨░╨╣╨╜╨░ ╨╨╛╤, ╨╤╤╤╤╤ ╨╤╤╤, ╨╨╛╨╜╨╜╨░ ╨╨╕╤╨║╨╛ ╨₧ ╤╨╕╨╗╤╨╝╨╡: ╨╨╜╨╡╨╖╨░╨┐╨╜╨╛ ╨▓ ╨▒╨╛╨╗╨╛╤╨░╤ ╨╤╨╕╨╖╨╕╨░╨╜╤ ╨╜╨░╤╨╕╨╜╨░╤╤ ╨│╨╕╨▒╨╜╤╤╤ ╨╗╤╨┤╨╕. ╨╨║╨╗╨░╨┤╤╨▓╨░╨╡╤╤╤ ╨▓╨┐╨╡╤╨░╤╨╗╨╡╨╜╨╕╨╡, ╤╤╨╛ ╨║╨░╨║╨╛╨╡ ╤╤╤╨╡╤╤╨▓╨╛, ╨┐╤╨╡╨┤╨┐╨╛╨╗╨╛╨╢╨╕╤╨╡╨╗╤╨╜╨╛ ╨░╨╗╨╗╨╕╨│╨░╤╨╛╤ ╨╗╨░╨║╨╛╨╝╨╕╤╤╤ ╨╝╨╡╤╤╨╜╤╨╝╨╕ ╨╢╨╕╤╨╡╨╗╤╨╝╨╕. ╨╨╛ ╤╨┐╨╡╤╨╕╨░╨╗╨╕╤╤ ╨┐╨╛ ╨╢╨╕╨▓╨╛╤╨╜╤╨╝ ╨╤╤╨╕ ╨╛╤╨║╨░╨╖╤╨▓╨░╨╡╤╤╤ ╨▓╨╡╤╨╕╤╤ ╨▓ ╤╨╛, ╤╤╨╛ ╤╤╨╛ ┬╨┤╨╡╨╗╨╛ ╤╤╨║┬╗ ╨░╨╗╨╗╨╕╨│╨░╤╨╛╤╨░. ╨╨╗╨╡╨┤╤ ╤╨║╤╤╨╛╨▓ ╨▒╨╛╨╗╤╤╨╡ ╨╜╨░╨┐╨╛╨╝╨╕╨╜╨░╤╤ ╨╛╤╨┐╨╡╤╨░╤╨╛╨║ ╤╨╡╨╗╤╤╤╨╕ ╨░╨║╤╨╗╤. ╨╨╛ ╨║╨░╨║ ╨░╨║╤╨╗╤ ╨╝╨╛╨│╨╗╨╕ ╨╛╨║╨░╨╖╨░╤╤╤╤ ╨▓ ╨▒╨╛╨╗╨╛╤╨░╤? ╨╨╡╨╗╨╛ ╨╜╨╡ ╨╕╨╖ ╨╗╨╡╨│╨║╨╕╤. ╨╤╨╜╨╛, ╤╤╨╛ ╤╤╨╛ ╨║╨░╨║╨░╤-╤╨╛ ╨░╨┤╤╨║╨░╤ ╤╤╨▒╨░. ╨╤╨┐╤╤╨╡╨╜╨╛: ╨╨╨ ╨ƒ╤╨╛╨┤╨╛╨╗╨╢╨╕╤╨╡╨╗╤╨╜╨╛╤╤╤: 01:20:48 ╨ƒ╨╡╤╨╡╨▓╨╛╨┤: ╨ƒ╤╨╛╤╨╡╤╤╨╕╨╛╨╜╨░╨╗╤╨╜╤╨╣ (╨┤╨▓╤╤╨│╨╛╨╗╨╛╤╤╨╣) Format : Matroska Format version : Version 2 File size : 4.14 GiB Duration : 1h 20mn Overall bit rate : 7 347 Kbps Encoded date : UTC 2012-07-07 08:39:44 Writing application : mkvmerge v5.6.0 ('Kenya Kane') built on May 27 2012 16:44:04 Writing library : libebml v1.2.3 + libmatroska v1.3.0 Video #1 ID : 1 Format : AVC Format/Info : Advanced Video Codec Format profile : [email protected] Format settings, CABAC : Yes Format settings, ReFrames : 3 frames Muxing mode : Header stripping Codec ID : V_MPEG4/ISO/AVC Duration : 1h 20mn Bit rate : 7 009 Kbps Width : 1 920 pixels Height : 1 080 pixels Display aspect ratio : 16:9 Frame rate : 50.000 fps Original frame rate : 25.000 fps Standard : Component Color space : YUV Chroma subsampling : 4:2:0 Bit depth : 8 bits Scan type : Interlaced Scan order : Top Field First Bits/(Pixel*Frame) : 0.068 Stream size : 3.95 GiB (95%) Default : Yes Forced : No Color primaries : BT.709-5, BT.1361, IEC 61966-2-4, SMPTE RP177 Transfer characteristics : BT.709-5, BT.1361 Matrix coefficients : BT.709-5, BT.1361, IEC 61966-2-4 709, SMPTE RP177 Audio #2 ID : 2 Format : MPEG Audio Format version : Version 1 Format profile : Layer 2 Muxing mode : Header stripping Codec ID : A_MPEG/L2 Codec ID/Hint : MP2 Duration : 1h 20mn Bit rate mode : Constant Bit rate : 192 Kbps Channel(s) : 2 channels Sampling rate : 48.0 KHz Compression mode : Lossy Delay relative to video : 11ms Stream size : 111 MiB (3%) Default : Yes Forced : No

Download utorrent client from http://www.utorrent.com/ before downloading from below magnet link

[related-news][/related-news]
Dear visitor, you are browsing our website as Guest.
We strongly recommend you to register and login to view hidden contents.

Comments:

Add Comments
 

This site doesn't store any files on its server. We only index and link to content provided by other sites.