Advertise
onlinemovies


Erin Brockovich_Tavis_Smiley_720p.HDTV.x264_2012-07-06_TTL

Published On: 27-12-2012, 14:33

Torrent name:Erin Brockovich_Tavis_Smiley_720p.HDTV.x264_2012-07-06_TTL

Seeds:0

Leechers:1

Health: 

Total size:547.19 MB

Torrent added:2012-07-10 01:36:23

Info hash:EAA49A8AD7D682110D9F832BB882C798420E44CB


Description:

Enjoy and please share. TTLTTLTTLTTLTTLTTLTTLTTLTTLTTLTTLTTLTTLTTLTTLTTLTTLTTLTTL Erin Brockovich_Tavis_Smiley_720p.HDTV.x264_2012-07-06_TTL.mkv Format : Matroska File size : 547 MiB Duration : 25mn 19s Overall bit rate : 3 021 Kbps Writing application : HandBrake 0.9.5 Writing library : libmkv 0.6.4.1 Video ID : 1 Format : AVC Format/Info : Advanced Video Codec Format profile : [email protected] Format settings, CABAC : Yes Format settings, ReFrames : 4 frames Muxing mode : Container [email protected] Codec ID : V_MPEG4/ISO/AVC Duration : 25mn 18s Bit rate : 2 736 Kbps Nominal bit rate : 2 791 Kbps Width : 1 280 pixels Height : 720 pixels Display aspect ratio : 16:9 Frame rate mode : Variable Frame rate : 29.970 fps Resolution : 8 bits Colorimetry : 4:2:0 Scan type : Progressive Bits/(Pixel*Frame) : 0.099 Stream size : 495 MiB (91%) Writing library : x264 core 112 Audio ID : 2 Format : AC-3 Format/Info : Audio Coding 3 Codec ID : A_AC3 Duration : 25mn 19s Bit rate mode : Constant Bit rate : 224 Kbps Channel(s) : 2 channels Channel positions : L R Sampling rate : 48.0 KHz Stream size : 40.6 MiB (7%)

Download utorrent client from http://www.utorrent.com/ before downloading from below magnet link

[related-news][/related-news]
Dear visitor, you are browsing our website as Guest.
We strongly recommend you to register and login to view hidden contents.

Comments:

Add Comments
 

This site doesn't store any files on its server. We only index and link to content provided by other sites.