Advertise
onlinemovies


IMPACT.WRESTLING.2012.06.07.HDTV.XviD-FICEK9

Published On: 29-12-2012, 21:30

Torrent name:IMPACT.WRESTLING.2012.06.07.HDTV.XviD-FICEK9

Seeds:1

Leechers:0

Health: 

Total size:746.15 MB

Torrent added:2012-07-10 10:22:39

Info hash:BF3AEFCC439153681546055A61556CB149C676DB


Description:

Complete name : IMPACT.WRESTLING.2012.06.07.HDTV.XviD-FICEK9.avi Format : AVI Format/Info : Audio Video Interleave File size : 746 MiB Duration : 1h 23mn Overall bit rate mode : Variable Overall bit rate : 1 246 Kbps Writing application : MEncoder SVN-r30881(20100311-gcc4.3.3) Writing library : MPlayer Video #0 ID : 0 Format : MPEG-4 Visual Format profile : Advanced [email protected] Format settings, BVOP : 2 Format settings, QPel : No Format settings, GMC : No warppoints Format settings, Matrix : Default (H.263) Codec ID : XVID Codec ID/Hint : XviD Duration : 1h 23mn Bit rate : 1 110 Kbps Width : 624 pixels Height : 352 pixels Display aspect ratio : 16:9 Frame rate : 29.970 fps Color space : YUV Chroma subsampling : 4:2:0 Bit depth : 8 bits Scan type : Progressive Compression mode : Lossy Bits/(Pixel*Frame) : 0.169 Stream size : 665 MiB (89%) Writing library : XviD 1.2.1 (UTC 2008-12-04) Audio #1 ID : 1 Format : MPEG Audio Format version : Version 1 Format profile : Layer 3 Mode : Joint stereo Codec ID : 55 Codec ID/Hint : MP3 Duration : 1h 23mn Bit rate mode : Variable Bit rate : 122 Kbps Channel(s) : 2 channels Sampling rate : 48.0 KHz Compression mode : Lossy Stream size : 73.2 MiB (10%) Alignment : Aligned on interleaves Interleave, duration : 24 ms (0.72 video frame) Interleave, preload duration : 533 ms Writing library : LAME3.98

Download utorrent client from http://www.utorrent.com/ before downloading from below magnet link

[related-news][/related-news]
Dear visitor, you are browsing our website as Guest.
We strongly recommend you to register and login to view hidden contents.

Comments:

Add Comments
 

This site doesn't store any files on its server. We only index and link to content provided by other sites.