Advertise
onlinemovies


IIFA Awards (2012) Main Event 720p

Published On: 29-12-2012, 21:30

Torrent name:IIFA Awards (2012) Main Event 720p

Seeds:6

Leechers:5

Health: 

Total size:706.9 MB

Torrent added:2012-07-10 10:43:39

Info hash:10D1852174704E28C90619266D283479E123C6D8


Description:

http://i1271.photobucket.com/albums/jj629/sameer_ecs/IIFAAwards2012MainEvent720pavi_thumbs_20120710_140953.jpg General Complete name : IIFA Awards (2012) Main Event 720p Format : AVI Format/Info : Audio Video Interleave File size : 707 MiB Duration : 45mn 12s Overall bit rate : 2 185 Kbps Writing library : VirtualDub build 32842/release Video ID : 0 Format : MPEG-4 Visual Format profile : Advanced [email protected] Format settings, BVOP : 2 Format settings, QPel : No Format settings, GMC : No warppoints Format settings, Matrix : Default (H.263) Muxing mode : Packed bitstream Codec ID : XVID Codec ID/Hint : XviD Duration : 45mn 12s Bit rate : 2 047 Kbps Width : 1 264 pixels Height : 720 pixels Display aspect ratio : 16:9 Frame rate : 25.000 fps Color space : YUV Chroma subsampling : 4:2:0 Bit depth : 8 bits Scan type : Progressive Compression mode : Lossy Bits/(Pixel*Frame) : 0.090 Stream size : 662 MiB (94%) Writing library : XviD 64 Audio ID : 1 Format : MPEG Audio Format version : Version 1 Format profile : Layer 3 Codec ID : 55 Codec ID/Hint : MP3 Duration : 45mn 12s Bit rate mode : Constant Bit rate : 128 Kbps Channel(s) : 2 channels Sampling rate : 44.1 KHz Compression mode : Lossy Stream size : 41.4 MiB (6%) Alignment : Split accross interleaves Interleave, duration : 40 ms (1.00 video frame) Interleave, preload duration : 500 ms

Download utorrent client from http://www.utorrent.com/ before downloading from below magnet link

[related-news][/related-news]
Dear visitor, you are browsing our website as Guest.
We strongly recommend you to register and login to view hidden contents.

Comments:

Add Comments
 

This site doesn't store any files on its server. We only index and link to content provided by other sites.