Advertise
onlinemovies


Jacques Rivette - L'amour Fou (1969) Eng Subs

Published On: 29-12-2012, 21:31

Torrent name:Jacques Rivette - L'amour Fou (1969) Eng Subs

Seeds:4

Leechers:3

Health: 

Total size:2.93 GB

Torrent added:2012-07-10 10:56:45

Info hash:1453CDF920E6DFC6DF60F7B62B1170E41CEB514F


Description:

Very good quality vhsrip ENGLISH SOFT SUBS INCLUDED credits to NeilMac1971for the subs and snb for the vhsrip @KG Synopsis dvdbeaver.com wrote: L'AMOUR FOU is about the rehearsal for a play and the crack-up of a marriage. The central character, Sebastien, is rehearsing a production of Andromaque, by Racine, with his wife Claire playing the leading role. Near the beginning of rehearsals, she leaves the production, pleading claustrophobia at the presence of a television crew filming the proceedings[...] As the rehearsals continue, Claire becomes progressively more paranoid; gratuitously, she sleeps with an ex-lover, while Sebastien is himself unfaithful with an actress from the theatre. Eventually, after a weekend during which Claire and Sebastien, locked in their apartment, engage in an orgy of sex and destruction, she boards a train and leaves him. File info: General Complete name : L'amour Fou (Jacques Rivette 1969).avi Format : AVI Format/Info : Audio Video Interleave Format profile : OpenDML File size : 2.93 GiB Duration : 4h 5mn Overall bit rate mode : Variable Overall bit rate : 1 708 Kbps Writing application : VirtualDubMod 1.5.10.2 (build 2540/release) Writing library : VirtualDubMod build 2540/release Video ID : 0 Format : MPEG-4 Visual Format profile : Advanced [email protected] Format settings, BVOP : 1 Format settings, QPel : No Format settings, GMC : No warppoints Format settings, Matrix : Custom Codec ID : XVID Codec ID/Hint : XviD Duration : 4h 5mn Bit rate : 1 542 Kbps Width : 672 pixels Height : 400 pixels Display aspect ratio : 1.680 Frame rate : 25.000 fps Color space : YUV Chroma subsampling : 4:2:0 Bit depth : 8 bits Scan type : Progressive Compression mode : Lossy Bits/(Pixel*Frame) : 0.229 Stream size : 2.65 GiB (90%) Writing library : XviD 1.2.1 (UTC 2008-12-04) Audio ID : 1 Format : MPEG Audio Format version : Version 1 Format profile : Layer 3 Mode : Joint stereo Mode extension : MS Stereo Codec ID : 55 Codec ID/Hint : MP3 Duration : 4h 5mn Bit rate mode : Variable Bit rate : 152 Kbps Minimum bit rate : 32.0 Kbps Channel(s) : 2 channels Sampling rate : 48.0 KHz Compression mode : Lossy Stream size : 266 MiB (9%) Alignment : Aligned on interleaves Interleave, duration : 24 ms (0.60 video frame) Interleave, preload duration : 384 ms Writing library : LAME3.98 Encoding settings : -m j -V 0 -q 0 -lowpass 19.5 --vbr-new -b 32 Preview: http://bayimg.com/dAPfeAADm

Download utorrent client from http://www.utorrent.com/ before downloading from below magnet link

[related-news][/related-news]
Dear visitor, you are browsing our website as Guest.
We strongly recommend you to register and login to view hidden contents.

Comments:

Add Comments
 

This site doesn't store any files on its server. We only index and link to content provided by other sites.