Advertise
onlinemovies


Eureka.S05E12.720p.WEB-DL.DD5.1.H.264-ECI

Published On: 30-12-2012, 07:32

Torrent name:Eureka.S05E12.720p.WEB-DL.DD5.1.H.264-ECI

Seeds:0

Leechers:1

Health: 

Total size:1.33 GB

Torrent added:2012-07-11 15:59:29

Info hash:EF100AFF9771498F1F421D4E6626CD6D6959DE00


Description:

- http://www.Speed.Cd http://www.Speed.Cd the fast and The Hottest Private Tracker on the net (((--Registration is Open!!--))) Please Seed back to make the speed Faster!!! and don't forget to visit .......http://www.Speed.Cd ...... ............ NFO ............. -General Unique ID : 252500721337116909479385377490091828348 (0xBDF5DEB9A5B5B5D7BC8324675F96E47C) Complete name : Eureka.S05E12.Double.Take.720p.WEB-DL.DD5.1.H.264-ECI.mkv Format : Matroska Format version : Version 2 File size : 1.33 GiB Duration : 43mn 13s Overall bit rate : 4 411 Kbps Encoded date : UTC 2012-07-10 08:55:38 Writing application : mkvmerge v5.5.0 ('Healer') built on Apr 6 2012 21:43:24 Writing library : libebml v1.2.3 + libmatroska v1.3.0 Video ID : 1 Format : AVC Format/Info : Advanced Video Codec Format profile : [email protected] Format settings, CABAC : No Format settings, ReFrames : 2 frames Muxing mode : Header stripping Codec ID : V_MPEG4/ISO/AVC Duration : 43mn 13s Bit rate : 3 939 Kbps Width : 1 280 pixels Height : 720 pixels Display aspect ratio : 16:9 Frame rate : 23.976 fps Color space : YUV Chroma subsampling : 4:2:0 Bit depth : 8 bits Scan type : Progressive Bits/(Pixel*Frame) : 0.178 Stream size : 1.19 GiB (89%) Language : English Default : Yes Forced : No Color primaries : BT.709-5, BT.1361, IEC 61966-2-4, SMPTE RP177 Transfer characteristics : BT.709-5, BT.1361 Matrix coefficients : BT.709-5, BT.1361, IEC 61966-2-4 709, SMPTE RP177 Audio ID : 2 Format : AC-3 Format/Info : Audio Coding 3 Mode extension : CM (complete main) Format settings, Endianness : Big Muxing mode : Header stripping Codec ID : A_AC3 Duration : 43mn 13s Bit rate mode : Constant Bit rate : 384 Kbps Channel(s) : 6 channels Channel positions : Front: L C R, Side: L R, LFE Sampling rate : 48.0 KHz Bit depth : 16 bits Compression mode : Lossy Stream size : 119 MiB (9%) Language : English Default : Yes Forced : No

Download utorrent client from http://www.utorrent.com/ before downloading from below magnet link

[related-news][/related-news]
Dear visitor, you are browsing our website as Guest.
We strongly recommend you to register and login to view hidden contents.

Comments:

Add Comments
 

This site doesn't store any files on its server. We only index and link to content provided by other sites.