2013Zone For Latest Downloads

 
     
 
Legal Downloads » Torrents » Wrath Of The Titans 2012 V1 TS XViD Best Quality
Menu
Home Applications
Games Movies
Music TV Shows
Torrents Graphics

Sitemap

RSS
 
Advanced Search
Last News
Site Info
Top Contributors:
  1    supper88 32766
  2    admin 32630
  3    creativelivenew 8706
  4    whathesupa 2799
  5    candymypost 840
  6    hvnteam 629
  7    vuong87 3


Articles:
  This Hour: 0
  Today: 0
  This Month: 20
  All Time: 514774


Torrents:
  Today: 0
  Yesterday: 0
  All Time: 155778


Membership:
  Registered Today :0
  This Hour:0
  This Month:0
  Total:12
  Banned:6

{online}
{inform_torrent}
Friend:
We Recomend
Trend
Trend
onlinemovies

Search In Site

Torrents : Wrath Of The Titans 2012 V1 TS XViD Best Quality
 

Torrent name:Wrath Of The Titans 2012 V1 TS XViD Best Quality

Seeds:0

Leechers:0

Health: 

Total size:1.3 GB

Torrent added:2012-04-13 21:07:39

Info hash:C82B6C5134FFAAAC84F70543B80657A36A8C03A2


Description:
 

This is the best quality.

Perseus braves the treacherous underworld to rescue his father, Zeus, captured by his son, Ares, and brother Hades who unleash the ancient Titans upon the world.

Director: Jonathan Liebesman
Writers: Dan Mazeau (screenplay), David Johnson (screenplay), and 4 more credits ┬╗
Stars: Sam Worthington, Liam Neeson and Rosamund Pike


Format : AVI
Format/Info : Audio Video Interleave
File size : 1.29 GiB
Duration : 1h 30mn
Overall bit rate : 2 053 Kbps
Writing library : VirtualDub build 32842/release

Video
ID : 0
Format : MPEG-4 Visual
Format profile : Advanced [email protected]
Format settings, BVOP : 2
Format settings, QPel : No
Format settings, GMC : No warppoints
Format settings, Matrix : Default (H.263)
Muxing mode : Packed bitstream
Codec ID : XVID
Codec ID/Hint : XviD
Duration : 1h 30mn
Bit rate : 1 916 Kbps
Width : 652 pixels
Height : 338 pixels
Display aspect ratio : 1.929
Frame rate : 25.000 fps
Color space : YUV
Chroma subsampling : 4:2:0
Bit depth : 8 bits
Scan type : Progressive
Compression mode : Lossy
Bits/(Pixel*Frame) : 0.348
Stream size : 1.20 GiB (93%)
Writing library : XviD 64

Audio
ID : 1
Format : MPEG Audio
Format version : Version 1
Format profile : Layer 3
Codec ID : 55
Codec ID/Hint : MP3
Duration : 1h 30mn
Bit rate mode : Constant
Bit rate : 128 Kbps
Channel(s) : 2 channels
Sampling rate : 48.0 KHz
Compression mode : Lossy
Stream size : 82.4 MiB (6%)
Alignment : Split accross interleaves
Interleave, duration : 40 ms (1.00 video frame)
Interleave, preload duration : 500 ms

Download utorrent client from http://www.utorrent.com/ before downloading from below magnet link

magnet:?xt=urn:btih:C82B6C5134FFAAAC84F70543B80657A36A8C03A2


 
 
 
Dear visitor, you went to the site as an unregistered user. We encourage you to register or enter the site under your name.
 
   
 
 (Votes #: 0)