2013Zone For Latest Downloads

 
     
 
Legal Downloads » Torrents » Mirror.Mirror.TS.XviD.AC3-ANALOG
Menu
Home Applications
Games Movies
Music TV Shows
Torrents Graphics

Sitemap

RSS
 
Advanced Search
Last News
Site Info
Top Contributors:
  1    supper88 32766
  2    admin 32630
  3    creativelivenew 8706
  4    whathesupa 2799
  5    candymypost 840
  6    hvnteam 629
  7    vuong87 3


Articles:
  This Hour: 0
  Today: 0
  This Month: 20
  All Time: 514774


Torrents:
  Today: 0
  Yesterday: 0
  All Time: 155778


Membership:
  Registered Today :0
  This Hour:0
  This Month:0
  Total:12
  Banned:6

{online}
{inform_torrent}
Friend:
We Recomend
Trend
Trend
onlinemovies

Search In Site

Torrents : Mirror.Mirror.TS.XviD.AC3-ANALOG
 

Torrent name:Mirror.Mirror.TS.XviD.AC3-ANALOG

Seeds:2

Leechers:68

Health: 

Total size:1.38 GB

Torrent added:2012-04-13 21:25:51

Info hash:83477DE2332D20EA46C9B596E69DEBCB8D7A9F85


Description:
 

Mirror.Mirror.TS.XviD.AC3-ANALOG







Complete name : Mirror.Mirror.TS.Xvid.Ac3.ANALOGm.m.ts.analog.avi
Format : AVI
Format/Info : Audio Video Interleave
File size : 1.37 GiB
Duration : 1h 38mn
Overall bit rate : 1 999 Kbps
Writing application : VirtualDubMod 1.5.10.2 (build 2540/release)
Writing library : VirtualDubMod build 2540/release

Video
ID : 0
Format : MPEG-4 Visual
Format profile : Advanced [email protected]
Format settings, BVOP : 1
Format settings, QPel : Yes
Format settings, GMC : No warppoints
Format settings, Matrix : Custom
Muxing mode : Packed bitstream
Codec ID : XVID
Codec ID/Hint : XviD
Duration : 1h 38mn
Bit rate : 1 797 Kbps
Width : 688 pixels
Height : 288 pixels
Display aspect ratio : 2.35:1
Frame rate : 25.000 fps
Color space : YUV
Chroma subsampling : 4:2:0
Bit depth : 8 bits
Scan type : Progressive
Compression mode : Lossy
Bits/(Pixel*Frame) : 0.363
Stream size : 1.23 GiB (90%)
Writing library : XviD 58

Audio
ID : 1
Format : AC-3
Format/Info : Audio Coding 3
Mode extension : CM (complete main)
Codec ID : 2000
Duration : 1h 38mn
Bit rate mode : Constant
Bit rate : 192 Kbps
Channel(s) : 2 channels
Channel positions : Front: L R
Sampling rate : 48.0 KHz
Bit depth : 16 bits
Compression mode : Lossy
Stream size : 135 MiB (10%)
Alignment : Split accross interleaves
Interleave, duration : 40 ms (1.00 video frame)
Interleave, preload duration : 500 ms
Sample : Yes

Source : Vobs/Mirror Mirror 2012 TS2DVD DD2 THANX

Download utorrent client from http://www.utorrent.com/ before downloading from below magnet link

magnet:?xt=urn:btih:83477DE2332D20EA46C9B596E69DEBCB8D7A9F85


 
 
 
Dear visitor, you went to the site as an unregistered user. We encourage you to register or enter the site under your name.
 
   
 
 (Votes #: 0)